<?xml version="1.0" standalone="no"?>
<!DOCTYPE svg PUBLIC "-//W3C//DTD SVG 1.1//EN" "http://www.w3.org/Graphics/SVG/1.1/DTD/svg11.dtd" >
<svg xmlns="http://www.w3.org/2000/svg">
<metadata></metadata>
<defs>
<font id="pf_dintext_proregular" horiz-adv-x="1024" >
<font-face units-per-em="2048" ascent="1536" descent="-512" />
<missing-glyph horiz-adv-x="458" />
<glyph horiz-adv-x="0" />
<glyph horiz-adv-x="682" />
<glyph unicode=" "  horiz-adv-x="458" />
<glyph unicode="&#x09;" horiz-adv-x="458" />
<glyph unicode="&#xa0;" horiz-adv-x="458" />
<glyph unicode="!" horiz-adv-x="493" d="M158 0v201h184v-201h-184zM166 1425h162l-21 -1063h-123z" />
<glyph unicode="&#x22;" horiz-adv-x="632" d="M125 1012v413h131v-413h-131zM373 1012v413h131v-413h-131z" />
<glyph unicode="#" d="M31 442v117h205l43 311h-189v117h205l59 434h125l-59 -434h231l60 434h125l-60 -434h203v-117h-219l-43 -311h203v-117h-220l-59 -442h-125l59 442h-231l-59 -442h-125l59 442h-188zM360 559h232l43 311h-232z" />
<glyph unicode="$" d="M72 154q25 31 50 67.5t50 67.5q59 -55 137 -92t166 -47v483q-74 20 -140.5 51t-117.5 75t-82 106.5t-31 148.5q0 82 27 152.5t75 122.5t116.5 85t152.5 39v168h103v-170q86 -8 171 -36.5t150 -76.5q-20 -33 -40.5 -70.5t-41.5 -70.5q-53 35 -113.5 59.5t-125.5 34.5v-467 q84 -23 153.5 -52.5t118.5 -74.5t75.5 -111.5t26.5 -160.5q0 -174 -104.5 -276.5t-269.5 -118.5v-228h-103v228q-109 6 -214 46t-189 118zM283 1010q0 -41 17 -73t45 -55.5t61.5 -40t68.5 -28.5v442q-84 -10 -138 -72t-54 -173zM578 152q94 14 145 74.5t51 156.5 q0 51 -16.5 87t-44 62.5t-63.5 44t-72 29.5v-454z" />
<glyph unicode="%" horiz-adv-x="1613" d="M106 811v375q0 57 22 103t58.5 78t84.5 48.5t102 16.5q53 0 101 -16.5t85 -48.5t58.5 -78t21.5 -103v-375q0 -59 -21.5 -105.5t-58.5 -78t-85 -48t-101 -16.5t-101.5 16.5t-85 48t-58.5 78t-22 105.5zM240 819q0 -63 36.5 -97t96.5 -34q59 0 96 34t37 97v359q0 59 -37 94 t-96 35t-96 -35t-37 -94v-359zM309 -35l871 1495h127l-873 -1495h-125zM975 240v374q0 57 21.5 103.5t58.5 78t85 48t101 16.5t101.5 -16.5t85 -48t58 -77.5t21.5 -104v-374q0 -59 -21.5 -105.5t-58 -78t-85 -48t-101.5 -16.5t-101 16.5t-85 48t-58.5 77.5t-21.5 106z M1108 248q0 -63 37 -97t96 -34t96 33.5t37 97.5v358q0 59 -37 94t-96 35t-96 -34.5t-37 -94.5v-358z" />
<glyph unicode="&#x26;" horiz-adv-x="1302" d="M147 342q0 135 70 239.5t223 202.5q-16 18 -30.5 39t-30.5 41q-45 59 -75 116.5t-30 129.5q0 70 24 131.5t70 106.5t116.5 70.5t164.5 25.5q84 0 171 -30t163 -95l-104 -121q-37 29 -69 47.5t-60.5 27.5t-58 12t-66.5 3q-98 0 -140.5 -51t-42.5 -123q0 -47 17.5 -81 t56.5 -87q102 -135 206.5 -271t207.5 -272q39 66 60.5 125.5t35.5 122.5l160 -24q-23 -92 -58.5 -181.5t-95.5 -173.5q51 -66 106.5 -137.5t106.5 -134.5h-201l-122 154q-78 -76 -173.5 -121t-199.5 -45q-102 0 -178 28.5t-125 77.5t-74 112.5t-25 135.5zM315 352 q0 -88 60.5 -147.5t179.5 -59.5q39 0 78 12.5t74.5 31t66 41.5t53.5 46q-76 98 -148.5 195.5t-150.5 196.5q-106 -66 -159.5 -141.5t-53.5 -174.5z" />
<glyph unicode="'" horiz-adv-x="493" d="M174 1012v413h129v-413h-129z" />
<glyph unicode="(" horiz-adv-x="593" d="M104 625q0 131 31 252.5t83 232.5t120 207t143 178l94 -57q-66 -84 -117.5 -181.5t-89.5 -202t-58.5 -211t-20.5 -208.5q0 -111 21.5 -221.5t59.5 -215t90 -200.5t113 -178l-86 -66q-76 82 -144.5 180.5t-121.5 209t-85 231.5t-32 250z" />
<glyph unicode=")" horiz-adv-x="593" d="M41 -180q61 82 113.5 178t90.5 200.5t59.5 215t21.5 221.5q0 102 -20.5 208.5t-57.5 211t-90.5 202t-116.5 181.5l92 57q76 -82 144.5 -178t121 -207t83 -232.5t30.5 -252.5q0 -129 -31.5 -250t-85 -231.5t-123 -209t-145.5 -180.5z" />
<glyph unicode="*" horiz-adv-x="739" d="M57 1151l39 133l228 -96l-21 246h139l-20 -246q55 23 113.5 47.5t113.5 48.5l39 -135l-233 -59l159 -185q-29 -23 -56.5 -44t-57.5 -44l-127 213l-129 -215q-29 23 -57.5 44.5t-57.5 43.5l160 187q-57 14 -115.5 30.5t-116.5 30.5z" />
<glyph unicode="+" d="M59 537v131h387v389h132v-389h385v-131h-385v-394h-132v394h-387z" />
<glyph unicode="," horiz-adv-x="516" d="M131 -231l66 231h-58v227h211v-223l-114 -235h-105z" />
<glyph unicode="-" horiz-adv-x="802" d="M106 471v154h590v-154h-590z" />
<glyph unicode="." horiz-adv-x="497" d="M143 0v227h211v-227h-211z" />
<glyph unicode="/" horiz-adv-x="649" d="M-2 -86l514 1571h133l-514 -1571h-133z" />
<glyph unicode="0" d="M115 389v647q0 96 32.5 171t88 126t127 78t149.5 27t149.5 -27t127 -78t88 -125.5t32.5 -171.5v-647q0 -96 -32.5 -171t-88 -126t-127 -77.5t-149.5 -26.5t-149.5 26.5t-127 77.5t-88 126t-32.5 171zM283 401q0 -117 62.5 -182t166.5 -65t166.5 65.5t62.5 181.5v623 q0 117 -62.5 182.5t-166.5 65.5t-166.5 -65.5t-62.5 -182.5v-623z" />
<glyph unicode="1" d="M258 1114l2 178l182 133h170v-1425h-168v1249z" />
<glyph unicode="2" d="M102 0v168l553 698q80 100 80 203q0 82 -53 143.5t-164 61.5q-92 0 -154.5 -61.5t-76.5 -159.5l-172 24q12 82 49 148.5t91 112.5t122.5 71t144.5 25q82 0 155 -22.5t125 -69t82.5 -114t30.5 -155.5q0 -63 -26.5 -139t-77.5 -139l-498 -629h588v-166h-799z" />
<glyph unicode="3" d="M104 297l166 25q20 -92 83 -135.5t145 -43.5q57 0 104 21.5t81 59.5t51.5 89.5t17.5 110.5q0 121 -69 186.5t-175 65.5h-102v147h83q109 0 177.5 63.5t68.5 164.5q0 49 -17.5 91t-48 72.5t-72.5 47t-91 16.5q-72 0 -135.5 -47t-85.5 -137l-168 22q14 70 50 129.5 t87 102.5t115.5 66.5t136.5 23.5q104 0 180 -32t124 -84t71.5 -122t23.5 -145q0 -80 -37 -159t-139 -144q106 -61 150.5 -149.5t44.5 -172.5q0 -98 -31 -179t-88 -139.5t-136 -91t-175 -32.5q-63 0 -127 15t-117 51t-92 95.5t-54 147.5z" />
<glyph unicode="4" d="M59 217v164l490 1044h186l-495 -1050h438v420h166v-420h119v-158h-119v-217h-166v217h-619z" />
<glyph unicode="5" d="M94 297l168 29q18 -98 81 -142.5t151 -44.5q82 0 132 35t76.5 87t34.5 113.5t8 117.5q0 59 -9 115.5t-34.5 99.5t-71.5 69.5t-120 26.5q-66 0 -117 -35t-86 -92h-166v749h744v-159h-586v-398q70 61 130 78t126 17q86 0 153.5 -31t112.5 -86t68.5 -133t23.5 -172v-90 q0 -96 -26.5 -180.5t-78.5 -147t-131 -98t-183 -35.5q-72 0 -136.5 14t-117 50t-90 94.5t-56.5 148.5z" />
<glyph unicode="6" d="M109 414q0 63 17 142t58 161l369 708h186l-317 -620l6 -2q29 12 63.5 18t67.5 6q82 0 148.5 -31.5t113.5 -86t74 -127t27 -152.5q0 -115 -36 -199t-94.5 -138t-133 -79.5t-152.5 -25.5q-88 0 -162 26.5t-126 81t-80.5 134t-28.5 184.5zM276 418q0 -127 62.5 -201 t171.5 -74q104 0 168.5 75t64.5 200q0 63 -18 112.5t-50 83t-74 51t-91 17.5q-43 0 -85 -17.5t-75 -51t-53.5 -83t-20.5 -112.5z" />
<glyph unicode="7" d="M113 1047v378h796v-174l-493 -1251h-189l498 1260h-444v-213h-168z" />
<glyph unicode="8" d="M84 408q0 49 13.5 98t39 93t63.5 79t85 57q-92 45 -133 127t-41 172q0 84 30.5 158t85 128t127 86t158.5 32q94 0 168 -32t126 -86t79.5 -128t27.5 -158q0 -94 -45 -173t-123 -126q49 -20 86 -55t62 -79t36 -94t11 -99q0 -92 -34 -170t-92 -133.5t-136 -86t-166 -30.5 t-166 30.5t-136 86t-92 133t-34 170.5zM250 410q0 -55 21.5 -103.5t58.5 -83.5t84 -55.5t98 -20.5t98 20.5t83 55.5t57.5 83.5t21.5 103.5t-21.5 101t-57.5 80t-83 53.5t-98 19.5t-98 -19.5t-84 -53.5t-58.5 -80t-21.5 -101zM279 1038q0 -57 19 -100t52 -72.5t75 -44 t87 -14.5q43 0 85 14.5t75 44t53 72.5t20 100t-20 102.5t-53 76t-75 46t-85 15.5q-45 0 -87 -15.5t-75 -46t-52 -75.5t-19 -103z" />
<glyph unicode="9" d="M104 987q0 119 35 205t93.5 139t133 79t156.5 26q74 0 145.5 -27t127 -81t90.5 -134t35 -184q0 -131 -54 -236l-399 -776h-186l331 639l-6 2q-25 -16 -64.5 -24.5t-72.5 -8.5q-82 0 -149.5 28t-114.5 79t-74 120.5t-27 153.5zM272 1006q0 -63 19.5 -112.5t51.5 -83.5 t75 -51.5t92 -17.5t91 17.5t74 51.5t50 83t18 113q0 127 -62.5 200.5t-170.5 73.5q-104 0 -171 -74.5t-67 -199.5z" />
<glyph unicode=":" horiz-adv-x="487" d="M131 0v227h211v-227h-211zM131 584v227h211v-227h-211z" />
<glyph unicode=";" horiz-adv-x="487" d="M129 -231l66 231h-58v227h211v-223l-115 -235h-104zM137 584v227h211v-227h-211z" />
<glyph unicode="&#x3c;" d="M88 543v123l834 415v-145l-668 -332l668 -330v-145z" />
<glyph unicode="=" d="M59 338v137h904v-137h-904zM59 731v137h904v-137h-904z" />
<glyph unicode="&#x3e;" d="M90 129v145l668 330l-668 332v145l834 -415v-123z" />
<glyph unicode="?" horiz-adv-x="1017" d="M86 1040q25 100 69 175t103 123t130 72t149 24q90 0 163.5 -29t126 -79t81 -118.5t28.5 -148.5q-2 -61 -18.5 -110.5t-41 -90.5t-56.5 -75.5t-64 -69.5q-53 -55 -95.5 -109.5t-42.5 -124.5v-102h-178v106q0 72 28 133.5t77 112.5q31 33 66.5 70t66.5 76.5t51.5 81.5 t20.5 85q0 31 -9.5 69t-36 73t-71.5 58.5t-117 23.5q-63 0 -109.5 -29t-78 -70t-48 -84t-20.5 -73zM434 0v201h184v-201h-184z" />
<glyph unicode="@" horiz-adv-x="1693" d="M94 688q0 160 58.5 298t162 239.5t245.5 160t312 58.5q150 0 281 -49t227.5 -137.5t151.5 -208t55 -263.5q0 -141 -31.5 -236t-84 -154.5t-121 -85t-140.5 -25.5q-20 0 -51 8t-61.5 24.5t-56 40t-33.5 56.5h-11q-25 -45 -88 -76t-143 -31q-57 0 -107.5 14.5t-88.5 43 t-59.5 71.5t-21.5 103q0 45 15.5 86t46.5 72.5t78 50t110 18.5h242v90q0 63 -47 96t-135 33q-59 0 -102.5 -25.5t-71.5 -54.5l-95 78q47 53 122 88t159 35q70 0 125 -12.5t94 -42t59.5 -77.5t20.5 -120v-317q0 -61 34 -96t81 -35q39 0 77.5 15t70.5 56t52.5 116t20.5 193 q0 129 -48 228.5t-128 167t-181.5 103.5t-207.5 36q-139 0 -258 -49t-205 -134t-135.5 -201t-49.5 -249q0 -147 47.5 -267t132.5 -205t205.5 -131t268.5 -46q61 0 114.5 4t104.5 15.5t101 28.5t104 44l43 -119q-104 -41 -218 -66.5t-239 -25.5q-172 0 -319.5 53.5 t-255 152.5t-168 241.5t-60.5 320.5zM610 547q0 -51 42 -85t128 -34q96 0 148.5 36t52.5 107v88h-213q-76 0 -117 -27.5t-41 -84.5z" />
<glyph unicode="A" horiz-adv-x="1224" d="M12 0l523 1425h155l522 -1425h-190l-115 328h-592l-114 -328h-189zM367 483h489l-137 400l-105 303h-6l-100 -295z" />
<glyph unicode="B" horiz-adv-x="1224" d="M156 0v1425h538q104 0 182 -27.5t131.5 -76.5t80 -117.5t26.5 -150.5q0 -43 -11 -89t-38 -88t-68 -78t-98 -57v-6q61 -14 108.5 -49t78 -82t46 -101.5t15.5 -107.5q0 -90 -32 -163.5t-86 -125t-124.5 -79t-150.5 -27.5h-598zM336 166h366q68 0 118 20.5t82 54t48.5 77.5 t16.5 92q0 47 -16.5 91t-48.5 77.5t-82 53t-118 19.5h-366v-485zM336 807h336q131 0 196.5 66.5t65.5 164.5q0 96 -65.5 163t-196.5 67h-336v-461z" />
<glyph unicode="C" horiz-adv-x="1112" d="M106 516v393q0 104 31 199.5t94.5 168.5t158.5 116t222 43q174 0 293 -82t174 -219l-168 -76q-35 92 -110.5 147.5t-186.5 55.5q-84 0 -145 -31t-102 -81t-61.5 -115.5t-20.5 -133.5v-371q0 -72 20.5 -138t61.5 -117.5t102 -83t145 -31.5q111 0 188 58t111 155l168 -82 q-53 -143 -174 -223t-295 -80q-127 0 -222 43t-158.5 114.5t-94.5 168t-31 202.5z" />
<glyph unicode="D" horiz-adv-x="1265" d="M156 0v1425h467q160 0 288.5 -61t196.5 -203q39 -78 47 -184.5t8 -239.5q0 -150 -8 -260t-43 -194q-35 -80 -89 -134.5t-121.5 -87t-147.5 -47t-166 -14.5h-432zM336 166h278q100 0 171 28.5t115 82t63.5 128t19.5 166.5v273q0 117 -26.5 196.5t-76 129t-117 70 t-149.5 20.5h-278v-1094z" />
<glyph unicode="E" horiz-adv-x="1112" d="M156 0v1425h901v-165h-721v-461h614v-158h-614v-475h721v-166h-901z" />
<glyph unicode="F" horiz-adv-x="1073" d="M156 0v1425h901v-165h-721v-472h614v-157h-614v-631h-180z" />
<glyph unicode="G" horiz-adv-x="1224" d="M104 516v393q0 104 30 199.5t91.5 168.5t154.5 116t220 43q174 0 293 -82t174 -219l-168 -76q-35 92 -112.5 147.5t-188.5 55.5q-84 0 -143.5 -31t-97.5 -81t-56 -115.5t-18 -133.5v-383q0 -72 20.5 -138.5t61.5 -117.5t102 -83t145 -32q70 0 129.5 28t103.5 75 t68.5 108.5t24.5 128.5v113h-301v164h481v-277q0 -109 -37 -200.5t-104.5 -158.5t-160.5 -104.5t-206 -37.5q-129 0 -224 43t-157.5 115.5t-93.5 169t-31 202.5z" />
<glyph unicode="H" horiz-adv-x="1302" d="M156 0v1425h180v-626h631v626h180v-1425h-180v641h-631v-641h-180z" />
<glyph unicode="I" horiz-adv-x="493" d="M156 0v1425h180v-1425h-180z" />
<glyph unicode="J" horiz-adv-x="956" d="M29 135l118 133q18 -18 45 -37.5t58 -36t63.5 -26.5t61.5 -10q51 0 98 12t84 45t58.5 91.5t21.5 150.5v968h180v-970q0 -131 -33.5 -220.5t-93 -144.5t-139.5 -78.5t-170 -23.5q-109 0 -201 41t-151 106z" />
<glyph unicode="K" horiz-adv-x="1265" d="M156 0v1425h182v-772l6 2l262 320l375 450h209l-465 -561l528 -864h-209l-434 723l-274 -330v-393h-180z" />
<glyph unicode="L" horiz-adv-x="1112" d="M156 0v1425h180v-1259h721v-166h-901z" />
<glyph unicode="M" horiz-adv-x="1531" d="M156 0v1425h180l301 -665l141 -332h6l142 330l297 667h176v-1425h-180v1016l-7 -4l-110 -269l-246 -532h-158l-249 549l-107 256l-6 -4v-1012h-180z" />
<glyph unicode="N" horiz-adv-x="1378" d="M156 0v1425h178l502 -776l206 -342l7 4v1114h178v-1425h-176l-521 803l-188 311l-6 -2v-1112h-180z" />
<glyph unicode="O" horiz-adv-x="1218" d="M102 516v393q0 104 31 199.5t94.5 168.5t158.5 116t222 43q117 0 211 -40t161 -109.5t101.5 -167t34.5 -210.5v-393q0 -121 -36 -219t-102.5 -167t-159.5 -105.5t-210 -36.5q-127 0 -222 43t-158.5 114.5t-94.5 168t-31 202.5zM281 526q0 -72 20.5 -138t61 -117.5 t102 -83t145.5 -31.5q76 0 136.5 28.5t102.5 77.5t64.5 116.5t22.5 147.5v379q0 74 -22.5 139.5t-64.5 114.5t-102.5 78t-136.5 29q-84 0 -145.5 -31t-102 -81t-61 -115.5t-20.5 -133.5v-379z" />
<glyph unicode="P" horiz-adv-x="1171" d="M156 0v1425h522q88 0 173 -24.5t150.5 -76.5t106.5 -134t41 -197q0 -74 -29.5 -149.5t-86 -135t-139.5 -97.5t-187 -38h-371v-573h-180zM336 739h354q68 0 119 23.5t85 60.5t50.5 83t16.5 93q0 131 -79 196t-200 65h-346v-521z" />
<glyph unicode="Q" horiz-adv-x="1224" d="M104 516v393q0 104 31 199.5t94.5 168.5t158.5 116t222 43q117 0 211 -40t161 -109.5t101.5 -167t34.5 -210.5v-393q0 -156 -59 -274l186 -150l-98 -123l-182 146q-66 -61 -155 -94t-200 -33q-127 0 -222 43t-158.5 114.5t-94.5 168t-31 202.5zM283 530q0 -72 20.5 -138 t61.5 -117.5t102 -83t145 -31.5q61 0 112.5 18.5t92.5 52.5l-199 160l105 121l184 -150q14 39 22.5 80t8.5 88v371q0 74 -22.5 139.5t-64.5 114.5t-102.5 78t-136.5 29q-84 0 -145 -31t-102 -81t-61.5 -115.5t-20.5 -133.5v-371z" />
<glyph unicode="R" horiz-adv-x="1224" d="M156 0v1425h581q86 0 162 -28.5t131 -79.5t87 -123t32 -158q0 -147 -85 -248.5t-222 -142.5l288 -645h-200l-273 627h-321v-627h-180zM336 784h360q117 0 195 64.5t78 187.5q0 121 -74 176.5t-190 55.5h-369v-484z" />
<glyph unicode="S" horiz-adv-x="1114" d="M4 182l115 146q86 -82 198.5 -125t241.5 -43q68 0 126 14t100 44t67 77t25 113q0 61 -27 100t-72 64.5t-104.5 42t-126.5 28.5q-84 16 -166 35.5t-147.5 60.5t-106.5 112t-41 187q0 98 38 173t103.5 126.5t150.5 77t181 25.5q145 0 256 -33t201 -104l-101 -154 q-78 53 -167 84t-189 31q-143 0 -219 -59.5t-76 -166.5q0 -55 25.5 -93t77 -64.5t126 -46t171.5 -37.5q68 -14 138 -35t128.5 -63t95.5 -111t37 -182q0 -98 -38 -175t-105.5 -131.5t-161.5 -83t-207 -28.5q-68 0 -140.5 12t-145 36.5t-139.5 60.5t-122 85z" />
<glyph unicode="T" horiz-adv-x="995" d="M2 1268v157h991v-157h-405v-1268h-180v1268h-406z" />
<glyph unicode="U" horiz-adv-x="1265" d="M127 516v909h178v-895q0 -72 20.5 -138t61.5 -117.5t102.5 -83t145.5 -31.5q152 0 239 95t87 275v895h180v-909q0 -121 -36 -219t-102.5 -167t-159.5 -105.5t-210 -36.5q-127 0 -222.5 43t-159 114.5t-94 168t-30.5 202.5z" />
<glyph unicode="V" horiz-adv-x="1112" d="M6 1425h197l227 -727l121 -391l10 2q29 98 58.5 196.5t58.5 196.5l223 723h199l-473 -1425h-148z" />
<glyph unicode="W" horiz-adv-x="1685" d="M25 1425h196l160 -698l86 -385l8 -2l94 383l195 702h147l201 -714l98 -373h7q18 86 36.5 183t36.5 184l164 720h197l-361 -1425h-155l-193 709l-102 381l-9 -3l-92 -352l-198 -735h-158z" />
<glyph unicode="X" horiz-adv-x="1071" d="M-2 0l438 731l-409 694h200l308 -555l309 555h200l-409 -694l438 -731h-201l-337 592l-336 -592h-201z" />
<glyph unicode="Y" horiz-adv-x="1040" d="M4 1425h191l198 -395l127 -272l133 284l193 383h186l-428 -860v-565h-172v565z" />
<glyph unicode="Z" horiz-adv-x="1034" d="M68 0v158l694 1110h-668v157h875v-143l-699 -1116h699v-166h-901z" />
<glyph unicode="[" horiz-adv-x="534" d="M150 -215v1645h346v-115h-193v-1415h193v-115h-346z" />
<glyph unicode="\" horiz-adv-x="649" d="M-2 1485h133l514 -1571h-133z" />
<glyph unicode="]" horiz-adv-x="534" d="M55 -100h191v1415h-191v115h344v-1645h-344v115z" />
<glyph unicode="^" d="M47 672l414 751h123l415 -751h-145l-332 604l-329 -604h-146z" />
<glyph unicode="_" d="M0 -141h1024v-123h-1024v123z" />
<glyph unicode="`" horiz-adv-x="1005" d="M397 1481l166 51l148 -363l-109 -41z" />
<glyph unicode="a" horiz-adv-x="987" d="M72 289q0 59 20.5 113.5t60.5 95.5t100 65.5t142 24.5h320v114q0 84 -55.5 125t-178.5 41q-96 0 -151.5 -23.5t-89.5 -64.5l-107 113q57 66 147.5 99.5t194.5 33.5q82 0 157 -15.5t131 -52t89 -100t33 -160.5v-698h-170v88l-2 2q-29 -45 -102.5 -73.5t-178.5 -28.5 q-174 0 -267 85t-93 216zM231 299q0 -72 54.5 -115t167.5 -43q49 0 96 8.5t84 30t59.5 57t22.5 93.5v119h-279q-98 0 -151.5 -39t-53.5 -111z" />
<glyph unicode="b" horiz-adv-x="1015" d="M121 0v1487h168v-586h4q66 72 134.5 98.5t141.5 26.5q109 0 178.5 -44t109.5 -114.5t56.5 -161t18.5 -184.5q0 -96 -13.5 -192.5t-53.5 -172t-110.5 -122.5t-185.5 -47q-74 0 -149.5 24.5t-126.5 100.5h-4v-113h-168zM289 508q0 -55 7 -119.5t31.5 -120t70.5 -91.5 t124 -36q80 0 127 35t70.5 89t31 119t7.5 124q0 61 -7.5 123.5t-32 113t-71.5 82t-125 31.5t-124 -32.5t-70.5 -84t-31.5 -114t-7 -119.5z" />
<glyph unicode="c" horiz-adv-x="882" d="M57 506q0 141 39 239.5t103.5 161t147.5 91t171 28.5q102 0 184 -39t148 -102l-109 -123q-41 47 -98 74.5t-117 27.5q-143 0 -222 -88t-79 -270q0 -180 79 -269.5t222 -89.5q66 0 122.5 32t92.5 73l111 -121q-66 -66 -147.5 -104.5t-186.5 -38.5q-88 0 -171 28.5 t-147.5 91t-103.5 161t-39 237.5z" />
<glyph unicode="d" horiz-adv-x="1015" d="M94 498q0 98 16.5 193t61.5 169t121 120t196 46q76 0 141.5 -25.5t104.5 -76.5h4v563h168v-1487h-168v98l-6 2q-68 -66 -138.5 -89t-145.5 -23q-109 0 -178.5 41t-108.5 110.5t-53.5 162.5t-14.5 196zM270 508q0 -72 7.5 -135.5t31 -112.5t69.5 -77.5t124 -28.5 q76 0 123 34.5t72.5 87t33.5 115t8 117.5q0 57 -7 119.5t-30.5 114t-69.5 84t-122 32.5q-80 0 -127 -31.5t-71.5 -82t-33 -113t-8.5 -123.5z" />
<glyph unicode="e" horiz-adv-x="985" d="M80 504q0 150 39 251t100.5 161.5t137 86t147.5 25.5q84 0 157.5 -29.5t129 -87t87 -140.5t31.5 -189v-131h-653v-17q0 -59 16.5 -112.5t49 -93.5t82 -62.5t114.5 -22.5q49 0 113.5 25t116.5 72l108 -121q-72 -70 -162 -100.5t-184 -30.5q-78 0 -154.5 21.5t-138 78.5 t-99.5 157.5t-38 258.5zM256 592h477q-6 137 -69.5 206.5t-167.5 69.5t-168 -71.5t-72 -204.5z" />
<glyph unicode="f" horiz-adv-x="571" d="M45 868v148h125v215q0 135 76 200.5t186 65.5h121v-156h-104q-66 0 -87.5 -38.5t-21.5 -92.5v-194h213v-148h-213v-868h-170v868h-125z" />
<glyph unicode="g" horiz-adv-x="1046" d="M94 485q0 98 13.5 195.5t54.5 174.5t115.5 125t195.5 48q74 0 146.5 -32.5t113.5 -92.5h4v113h170v-998q0 -115 -35.5 -197.5t-96 -136t-140.5 -79t-168 -25.5q-86 0 -174 26.5t-154 90.5l101 137q41 -35 106.5 -63.5t124.5 -28.5q115 0 190.5 65.5t75.5 188.5v119h-4 q-63 -72 -132 -98.5t-144 -26.5q-109 0 -178.5 42t-110.5 111.5t-57.5 158.5t-16.5 183zM268 508q0 -70 7.5 -133.5t31 -111.5t69.5 -76.5t124 -28.5q76 0 123 32.5t72.5 84t33.5 114t8 119.5q0 51 -5 112.5t-28.5 116t-70.5 90t-129 35.5q-80 0 -127 -32.5t-70.5 -84 t-31 -114t-7.5 -123.5z" />
<glyph unicode="h" horiz-adv-x="1036" d="M115 0v1487h168v-598h6q53 66 126.5 101.5t155.5 35.5q74 0 137.5 -21.5t110.5 -65.5t74 -110.5t27 -154.5v-674h-168v608q0 117 -48.5 184.5t-175.5 67.5q-51 0 -95 -17.5t-77.5 -50t-53 -79.5t-19.5 -105v-608h-168z" />
<glyph unicode="i" horiz-adv-x="458" d="M145 0v1016h168v-1016h-168zM145 1257v168h168v-168h-168z" />
<glyph unicode="j" horiz-adv-x="497" d="M-14 -260h61q55 2 87 37t32 98v1141h170v-1153q0 -123 -65.5 -200t-194.5 -77h-90v154zM166 1257v168h170v-168h-170z" />
<glyph unicode="k" horiz-adv-x="1036" d="M139 0v1487h168v-961h6l439 490h198l-346 -383l418 -633h-195l-335 510l-185 -203v-307h-168z" />
<glyph unicode="l" horiz-adv-x="497" d="M139 236v1251h168v-1237q0 -96 105 -96h49v-154h-72q-111 0 -180.5 52t-69.5 184z" />
<glyph unicode="m" horiz-adv-x="1673" d="M115 0v1016h170v-125h4q51 66 125.5 100.5t156.5 34.5q104 0 176 -39t125 -106q0 2 2 0q72 78 153 111.5t181 33.5q74 0 137.5 -23.5t110.5 -67.5t73.5 -109.5t26.5 -149.5v-676h-167v608q0 117 -51.5 186.5t-182.5 69.5q-102 0 -167.5 -69.5t-65.5 -186.5v-608h-170v608 q0 117 -51.5 186.5t-182.5 69.5q-102 0 -167.5 -69.5t-65.5 -186.5v-608h-170z" />
<glyph unicode="n" horiz-adv-x="1036" d="M115 0v1018h168v-129h6q53 66 132 101.5t161 35.5q74 0 135 -21.5t106 -65.5t71 -110.5t26 -154.5v-674h-168v608q0 117 -49.5 184.5t-182.5 67.5q-102 0 -169.5 -67.5t-67.5 -184.5v-608h-168z" />
<glyph unicode="o" horiz-adv-x="1052" d="M104 504q0 86 11.5 158.5t40.5 132.5q51 111 150.5 170t232.5 59q111 0 196.5 -44t138.5 -126q35 -55 52.5 -134t17.5 -177q0 -131 -14.5 -220.5t-48.5 -148.5q-53 -90 -148.5 -138t-216.5 -48q-111 0 -197 37.5t-139 115.5q-41 63 -58.5 151.5t-17.5 211.5zM272 502 q0 -68 5.5 -122t25.5 -99q29 -66 84 -103t131 -37q82 0 146.5 43t93.5 138q10 37 13 85t3 130q0 59 -5 105t-21 83q-29 76 -86.5 111.5t-129.5 35.5q-76 0 -134 -37.5t-89 -105.5q-23 -47 -29 -103.5t-8 -123.5z" />
<glyph unicode="p" horiz-adv-x="1021" d="M115 -406v1422h168v-113l6 -2q59 68 129.5 96.5t146.5 28.5q109 0 179.5 -44t111.5 -116.5t56.5 -164t15.5 -185.5q0 -98 -16.5 -193.5t-61.5 -169t-122 -119.5t-196 -46q-76 0 -138 24.5t-107 77.5h-4v-496h-168zM283 506q0 -57 7 -119.5t30.5 -114t68.5 -84t123 -32.5 q80 0 127 31.5t71.5 81.5t33 112.5t8.5 124.5q0 59 -6.5 121.5t-29 115t-68.5 85t-126 32.5q-78 0 -125 -34.5t-72.5 -87t-33.5 -115t-8 -117.5z" />
<glyph unicode="q" horiz-adv-x="1046" d="M115 492q0 113 19.5 210t64.5 168.5t120.5 113.5t188.5 42q74 0 139.5 -34t106.5 -95h4v119h168v-1428h-168v525h-4q-66 -72 -138.5 -98.5t-146.5 -26.5q-109 0 -177.5 44t-107.5 114.5t-53 161t-16 184.5zM289 506q0 -61 7 -124t31.5 -113t71.5 -81.5t125 -31.5 q76 0 122 32.5t70.5 84t33 114t8.5 119.5q0 55 -7.5 119.5t-32 120t-70.5 91t-124 35.5q-80 0 -127 -34.5t-70.5 -89t-30.5 -119t-7 -123.5z" />
<glyph unicode="r" horiz-adv-x="747" d="M139 0v1016h168v-129h8q53 78 119 108.5t148 30.5q53 0 98 -11t74 -32l-72 -162q-59 39 -143 39q-100 0 -166 -61.5t-66 -184.5v-614h-168z" />
<glyph unicode="s" horiz-adv-x="935" d="M39 135l102 129q72 -61 151 -93t179 -32q92 0 157.5 39t65.5 119q0 78 -64.5 105.5t-168.5 37.5q-59 6 -123 17.5t-117 40t-87 81t-34 138.5q0 72 30 129t81 97t118.5 61.5t141.5 21.5q117 0 204 -28.5t159 -82.5l-91 -135q-59 41 -124.5 65.5t-147.5 24.5 q-98 0 -152.5 -41t-54.5 -108q0 -70 69.5 -97.5t209.5 -41.5q53 -6 110.5 -21.5t103.5 -47.5t75.5 -84t29.5 -128q0 -72 -29.5 -129t-83 -98t-126 -63.5t-160.5 -22.5q-111 0 -221.5 34.5t-202.5 112.5z" />
<glyph unicode="t" horiz-adv-x="630" d="M72 870v146h121v252h167v-252h156v-146h-156v-591q0 -47 18.5 -87t82.5 -40h88v-152h-121q-104 0 -169.5 60.5t-65.5 177.5v632h-121z" />
<glyph unicode="u" horiz-adv-x="1052" d="M115 342v674h168v-610q0 -66 10 -115t36.5 -81t71.5 -47.5t115 -15.5q100 0 168 71t68 188v610h168v-1016h-168v115h-7q-51 -66 -125.5 -96.5t-152.5 -30.5t-143.5 19.5t-111.5 62.5t-71.5 110.5t-25.5 161.5z" />
<glyph unicode="v" horiz-adv-x="925" d="M14 1016h185q37 -106 73.5 -221t73.5 -222l119 -337h8q25 76 54.5 168t52.5 167q37 109 73.5 222.5t73.5 222.5h186l-374 -1016h-148z" />
<glyph unicode="w" horiz-adv-x="1472" d="M12 1016h185l153 -535l66 -227h8q16 55 32.5 111.5t32.5 109.5l168 541h156l164 -535l70 -239h10q16 59 32.5 122.5t32.5 122.5l148 529h186l-326 -1016h-159l-152 489l-88 283l-82 -280l-151 -492h-162z" />
<glyph unicode="x" horiz-adv-x="948" d="M33 0l346 520l-330 496h201l225 -381l225 381h203l-332 -498l347 -518h-203l-240 395l-239 -395h-203z" />
<glyph unicode="y" horiz-adv-x="897" d="M0 1016h186l162 -461l105 -319h6l104 317l158 463h176l-436 -1231q-23 -61 -51.5 -100t-63.5 -59.5t-74 -28t-79 -7.5h-87v148h84q41 0 73 24.5t54 90.5l56 167z" />
<glyph unicode="z" horiz-adv-x="888" d="M70 0v139l553 729h-523v148h719v-146l-549 -714h549v-156h-749z" />
<glyph unicode="{" horiz-adv-x="534" d="M31 555v104q41 6 70.5 30t50 59.5t29.5 82t9 95.5v278q0 102 54.5 161.5t134.5 59.5h139v-110h-84q-29 0 -46 -16.5t-28.5 -42t-15.5 -57.5t-4 -62v-256q0 -66 -18.5 -114t-43 -81t-50 -50.5t-42.5 -23.5v-6q16 -6 42 -23.5t50.5 -50t43 -79.5t18.5 -111v-266 q0 -31 4 -62.5t15.5 -57.5t29 -42t45.5 -16h84v-109h-139q-80 0 -134.5 59.5t-54.5 159.5v285q0 109 -38.5 180.5t-120.5 81.5z" />
<glyph unicode="|" horiz-adv-x="417" d="M143 -332v1798h133v-1798h-133z" />
<glyph unicode="}" horiz-adv-x="534" d="M23 -102h86q27 0 45 16t28.5 42t15.5 57.5t5 62.5v266q0 63 17.5 110.5t42 80t51 50t42.5 23.5v6q-16 6 -42.5 23.5t-51 50.5t-42 81t-17.5 114v256q0 31 -1 62.5t-10.5 57t-29 42t-53.5 16.5h-86v102h135q98 0 146 -60.5t48 -152.5v-278q0 -49 9.5 -95.5t29 -82t49 -59 t70.5 -30.5v-104q-82 -10 -120 -82t-38 -180v-285q0 -100 -54 -159.5t-134 -59.5h-141v109z" />
<glyph unicode="~" d="M53 561q55 94 125 135t150 41q47 0 95 -20.5t96 -46t94 -46t89 -20.5q51 0 84 34t74 89l117 -88q-57 -92 -119.5 -139t-157.5 -47q-41 0 -89 20.5t-97 46t-97 46t-91 20.5q-55 0 -86 -27t-70 -78z" />
<glyph unicode="&#xa2;" d="M115 506q0 125 31.5 217t85 154.5t123 97.5t147.5 45v211h92v-205q96 -4 174 -43t139 -98l-108 -123q-41 45 -94.5 71.5t-110.5 30.5v-717q61 4 115.5 35t89.5 70l110 -121q-61 -61 -139 -100t-176 -43v-228h-92v234q-78 10 -147.5 44t-123 96.5t-85 154.5t-31.5 217z M283 506q0 -154 57 -241t162 -109v700q-104 -23 -161.5 -109.5t-57.5 -240.5z" />
<glyph unicode="&#xa3;" d="M90 0v131q74 98 124 217t54 254h-178v139h141q-23 82 -53.5 161t-30.5 165q0 70 26 136.5t75 117.5t118.5 82t159.5 31q70 0 126.5 -7.5t104.5 -29t92 -59.5t89 -99l-147 -104q-57 86 -127 113.5t-142 27.5q-29 0 -60.5 -11.5t-59 -37t-46 -65.5t-18.5 -95q0 -43 9 -84 t22.5 -81t28 -80t22.5 -81h325v-139h-311q-4 -111 -28.5 -224.5t-96.5 -221.5h627v-156h-846z" />
<glyph unicode="&#xa5;" d="M39 1425h178l293 -677h10l283 677h180l-309 -684h244v-110h-297l-23 -53v-144h320v-110h-320v-324h-164v324h-317v110h317v144l-20 53h-297v110h241z" />
<glyph unicode="&#xa8;" horiz-adv-x="1005" d="M223 1223v180h180v-180h-180zM592 1223v180h180v-180h-180z" />
<glyph unicode="&#xa9;" horiz-adv-x="1644" d="M115 698q0 154 54 286t150.5 228.5t226.5 150.5t281 54q152 0 283 -54t227.5 -150.5t150.5 -228.5t54 -286t-54 -283.5t-150.5 -226t-227.5 -150.5t-283 -54q-156 0 -285.5 54t-225 150.5t-148.5 226.5t-53 283zM244 698q0 -127 44 -234.5t122.5 -186t185 -123.5 t231.5 -45t231.5 45t185.5 123.5t123 186t44 234.5t-44 235.5t-123 188.5t-185.5 125t-231.5 45t-231.5 -45t-185 -125t-122.5 -188.5t-44 -235.5zM518 569v238q0 66 19.5 125t59.5 104t99.5 72t137.5 27q111 0 186.5 -53.5t109.5 -145.5l-120 -53q-23 55 -68 91t-106 36 q-47 0 -83 -17.5t-59.5 -47.5t-35 -67.5t-11.5 -76.5v-223q0 -41 11.5 -79t35 -69t59 -49.5t83.5 -18.5q63 0 107 38t67 98l123 -58q-37 -94 -113 -147t-186 -53q-78 0 -137.5 26.5t-99.5 71.5t-59.5 104.5t-19.5 126.5z" />
<glyph unicode="&#xab;" horiz-adv-x="940" d="M90 475l260 381h160l-254 -381l254 -381h-160zM442 475l260 381h160l-252 -381l252 -381h-160z" />
<glyph unicode="&#xad;" horiz-adv-x="802" d="M106 471v154h590v-154h-590z" />
<glyph unicode="&#xae;" horiz-adv-x="1146" d="M143 1008q0 92 33 170.5t90.5 136t136 90.5t168.5 33q92 0 170 -33t135.5 -90.5t90 -136t32.5 -170.5t-32.5 -169t-90 -134.5t-135 -89t-170.5 -31.5q-90 0 -168.5 31.5t-136 89t-90.5 134t-33 169.5zM225 1008q0 -74 27 -138.5t73 -110.5t109.5 -73t136.5 -27 q74 0 137.5 27t109.5 73t73 110.5t27 138.5q0 76 -27 140t-73 111.5t-109.5 74t-137.5 26.5t-137 -26.5t-109 -74t-73 -112t-27 -139.5zM412 760v495h204q61 0 104.5 -37.5t43.5 -103.5q0 -47 -26.5 -83t-69.5 -52l114 -219h-96l-104 207h-86v-207h-84zM496 1044h106 q35 0 56.5 18.5t21.5 51.5q0 66 -76 66h-108v-136z" />
<glyph unicode="&#xb4;" horiz-adv-x="1005" d="M395 1169l148 363l166 -51l-205 -353z" />
<glyph unicode="&#xb8;" horiz-adv-x="882" d="M299 -385l35 88q43 -18 79 -24.5t64 -6.5q41 0 68.5 20.5t27.5 53.5q0 39 -32.5 60.5t-85.5 21.5h-29l-41 43l66 211l92 -8l-49 -154q59 -4 98 -21.5t62.5 -43t33.5 -54t10 -53.5q0 -27 -11 -56.5t-36.5 -55t-67.5 -42t-106 -16.5q-41 0 -84 7t-94 30z" />
<glyph unicode="&#xbb;" horiz-adv-x="940" d="M92 94l252 381l-252 381h160l260 -381l-260 -381h-160zM444 94l254 381l-254 381h160l260 -381l-260 -381h-160z" />
<glyph unicode="&#xc2;" horiz-adv-x="1224" d="M12 0l523 1425h155l522 -1425h-190l-115 328h-592l-114 -328h-189zM260 1591l307 262h109l293 -258l-62 -79l-293 176l-295 -179zM367 483h489l-137 400l-105 303h-6l-100 -295z" />
<glyph unicode="&#xc7;" horiz-adv-x="1112" d="M106 516v393q0 104 31 199.5t94.5 168.5t158.5 116t222 43q174 0 293 -82t174 -219l-168 -76q-35 92 -110.5 147.5t-186.5 55.5q-84 0 -145 -31t-102 -81t-61.5 -115.5t-20.5 -133.5v-371q0 -72 20.5 -138t61.5 -117.5t102 -83t145 -31.5q111 0 188 58t111 155l168 -82 q-53 -141 -173 -221t-290 -82l-20 -68q59 -4 98 -21.5t62.5 -43t34 -54t10.5 -53.5q0 -27 -11.5 -56.5t-37 -55t-67.5 -42t-105 -16.5q-41 0 -84 7t-95 30l35 88q43 -18 79 -24.5t65 -6.5q41 0 68.5 20.5t27.5 53.5q0 39 -33 60.5t-86 21.5h-29l-41 43l37 123 q-106 12 -185 59t-131 118t-78 159t-26 186z" />
<glyph unicode="&#xce;" horiz-adv-x="493" d="M-104 1591l307 262h108l293 -258l-61 -79l-293 176l-295 -179zM156 0v1425h180v-1425h-180z" />
<glyph unicode="&#xd6;" horiz-adv-x="1218" d="M102 516v393q0 104 31 199.5t94.5 168.5t158.5 116t222 43q117 0 211 -40t161 -109.5t101.5 -167t34.5 -210.5v-393q0 -121 -36 -219t-102.5 -167t-159.5 -105.5t-210 -36.5q-127 0 -222 43t-158.5 114.5t-94.5 168t-31 202.5zM281 526q0 -72 20.5 -138t61 -117.5 t102 -83t145.5 -31.5q76 0 136.5 28.5t102.5 77.5t64.5 116.5t22.5 147.5v379q0 74 -22.5 139.5t-64.5 114.5t-102.5 78t-136.5 29q-84 0 -145.5 -31t-102 -81t-61 -115.5t-20.5 -133.5v-379zM326 1577v180h180v-180h-180zM694 1577v180h180v-180h-180z" />
<glyph unicode="&#xdb;" horiz-adv-x="1265" d="M127 516v909h178v-895q0 -72 20.5 -138t61.5 -117.5t102.5 -83t145.5 -31.5q152 0 239 95t87 275v895h180v-909q0 -121 -36 -219t-102.5 -167t-159.5 -105.5t-210 -36.5q-127 0 -222.5 43t-159 114.5t-94 168t-30.5 202.5zM279 1591l307 262h108l293 -258l-61 -79 l-293 176l-295 -179z" />
<glyph unicode="&#xdc;" horiz-adv-x="1265" d="M127 516v909h178v-895q0 -72 20.5 -138t61.5 -117.5t102.5 -83t145.5 -31.5q152 0 239 95t87 275v895h180v-909q0 -121 -36 -219t-102.5 -167t-159.5 -105.5t-210 -36.5q-127 0 -222.5 43t-159 114.5t-94 168t-30.5 202.5zM360 1577v180h181v-180h-181zM729 1577v180h180 v-180h-180z" />
<glyph unicode="&#xe2;" horiz-adv-x="987" d="M72 289q0 59 20.5 113.5t60.5 95.5t100 65.5t142 24.5h320v114q0 84 -55.5 125t-178.5 41q-96 0 -151.5 -23.5t-89.5 -64.5l-107 113q57 66 147.5 99.5t194.5 33.5q82 0 157 -15.5t131 -52t89 -100t33 -160.5v-698h-170v88l-2 2q-29 -45 -102.5 -73.5t-178.5 -28.5 q-174 0 -267 85t-93 216zM141 1208l308 314h108l293 -310l-82 -79l-272 217l-275 -220zM231 299q0 -72 54.5 -115t167.5 -43q49 0 96 8.5t84 30t59.5 57t22.5 93.5v119h-279q-98 0 -151.5 -39t-53.5 -111z" />
<glyph unicode="&#xe7;" horiz-adv-x="882" d="M57 506q0 141 39 239.5t103.5 161t147.5 91t171 28.5q102 0 184 -39t148 -102l-109 -123q-41 47 -98 74.5t-117 27.5q-143 0 -222 -88t-79 -270q0 -180 79 -269.5t222 -89.5q66 0 122.5 32t92.5 73l111 -121q-66 -66 -147.5 -104.5t-186.5 -38.5h-4l-20 -68 q59 -4 98 -21.5t62.5 -43t33.5 -54t10 -53.5q0 -27 -11 -56.5t-36.5 -55t-67.5 -42t-106 -16.5q-41 0 -84 7t-94 30l35 88q43 -18 79 -24.5t64 -6.5q41 0 68.5 20.5t27.5 53.5q0 39 -32.5 60.5t-85.5 21.5h-29l-41 43l39 125q-74 12 -140.5 48t-116.5 98.5t-80 152.5 t-30 211z" />
<glyph unicode="&#xee;" horiz-adv-x="626" d="M-41 1208l307 314h109l293 -310l-82 -79l-273 217l-274 -220zM225 0v1014h181v-1014h-181z" />
<glyph unicode="&#xf6;" horiz-adv-x="1052" d="M104 504q0 86 11.5 158.5t40.5 132.5q51 111 150.5 170t232.5 59q111 0 196.5 -44t138.5 -126q35 -55 52.5 -134t17.5 -177q0 -131 -14.5 -220.5t-48.5 -148.5q-53 -90 -148.5 -138t-216.5 -48q-111 0 -197 37.5t-139 115.5q-41 63 -58.5 151.5t-17.5 211.5zM244 1223 v180h180v-180h-180zM272 502q0 -68 5.5 -122t25.5 -99q29 -66 84 -103t131 -37q82 0 146.5 43t93.5 138q10 37 13 85t3 130q0 59 -5 105t-21 83q-29 76 -86.5 111.5t-129.5 35.5q-76 0 -134 -37.5t-89 -105.5q-23 -47 -29 -103.5t-8 -123.5zM612 1223v180h181v-180h-181z " />
<glyph unicode="&#xfb;" horiz-adv-x="1052" d="M115 342v674h168v-610q0 -66 10 -115t36.5 -81t71.5 -47.5t115 -15.5q100 0 168 71t68 188v610h168v-1016h-168v115h-7q-51 -66 -125.5 -96.5t-152.5 -30.5t-143.5 19.5t-111.5 62.5t-71.5 110.5t-25.5 161.5zM162 1208l307 314h109l292 -310l-82 -79l-272 217l-274 -220 z" />
<glyph unicode="&#xfc;" horiz-adv-x="1052" d="M115 342v674h168v-610q0 -66 10 -115t36.5 -81t71.5 -47.5t115 -15.5q100 0 168 71t68 188v610h168v-1016h-168v115h-7q-51 -66 -125.5 -96.5t-152.5 -30.5t-143.5 19.5t-111.5 62.5t-71.5 110.5t-25.5 161.5zM223 1223v180h180v-180h-180zM592 1223v180h180v-180h-180z " />
<glyph unicode="&#x11e;" horiz-adv-x="1224" d="M104 516v393q0 104 30 199.5t91.5 168.5t154.5 116t220 43q174 0 293 -82t174 -219l-168 -76q-35 92 -112.5 147.5t-188.5 55.5q-84 0 -143.5 -31t-97.5 -81t-56 -115.5t-18 -133.5v-383q0 -72 20.5 -138.5t61.5 -117.5t102 -83t145 -32q70 0 129.5 28t103.5 75 t68.5 108.5t24.5 128.5v113h-301v164h481v-277q0 -109 -37 -200.5t-104.5 -158.5t-160.5 -104.5t-206 -37.5q-129 0 -224 43t-157.5 115.5t-93.5 169t-31 202.5zM319 1761h150q2 -20 12.5 -42.5t28.5 -42t45 -32t59 -12.5q37 0 65 12.5t46 32t27.5 42t9.5 42.5h145 q-4 -41 -18.5 -87t-48 -85t-88 -65.5t-138.5 -26.5t-140 26.5t-90 65.5t-49.5 85t-15.5 87z" />
<glyph unicode="&#x11f;" horiz-adv-x="1046" d="M94 485q0 98 13.5 195.5t54.5 174.5t115.5 125t195.5 48q74 0 146.5 -32.5t113.5 -92.5h4v113h170v-998q0 -115 -35.5 -197.5t-96 -136t-140.5 -79t-168 -25.5q-86 0 -174 26.5t-154 90.5l101 137q41 -35 106.5 -63.5t124.5 -28.5q115 0 190.5 65.5t75.5 188.5v119h-4 q-63 -72 -132 -98.5t-144 -26.5q-109 0 -178.5 42t-110.5 111.5t-57.5 158.5t-16.5 183zM260 1427h150q2 -20 12 -42.5t28.5 -42t45 -32t59.5 -12.5q37 0 64.5 12.5t46 32t27.5 42t9 42.5h146q-4 -41 -18.5 -87t-48 -84.5t-88 -65.5t-138.5 -27t-140.5 27t-90 65.5t-49 84.5 t-15.5 87zM268 508q0 -70 7.5 -133.5t31 -111.5t69.5 -76.5t124 -28.5q76 0 123 32.5t72.5 84t33.5 114t8 119.5q0 51 -5 112.5t-28.5 116t-70.5 90t-129 35.5q-80 0 -127 -32.5t-70.5 -84t-31 -114t-7.5 -123.5z" />
<glyph unicode="&#x130;" horiz-adv-x="493" d="M154 1571v180h180v-180h-180zM156 0v1425h180v-1425h-180z" />
<glyph unicode="&#x131;" horiz-adv-x="409" d="M115 0v1014h180v-1014h-180z" />
<glyph unicode="&#x15e;" horiz-adv-x="1114" d="M4 182l115 146q86 -82 198.5 -125t241.5 -43q68 0 126 14t100 44t67 77t25 113q0 61 -27 100t-72 64.5t-104.5 42t-126.5 28.5q-84 16 -166 35.5t-147.5 60.5t-106.5 112t-41 187q0 98 38 173t103.5 126.5t150.5 77t181 25.5q145 0 256 -33t201 -104l-101 -154 q-78 53 -167 84t-189 31q-143 0 -219 -59.5t-76 -166.5q0 -55 25.5 -93t77 -64.5t126 -46t171.5 -37.5q68 -14 138 -35t128.5 -63t95.5 -111t37 -182q0 -96 -36 -172t-100.5 -129.5t-154.5 -84t-201 -32.5l-20 -68q59 -4 98 -21.5t62.5 -43t34 -54t10.5 -53.5 q0 -27 -11.5 -56.5t-37 -55t-67.5 -42t-105 -16.5q-41 0 -84 7t-95 30l35 88q43 -18 79 -24.5t65 -6.5q41 0 68.5 20.5t27.5 53.5q0 39 -33 60.5t-86 21.5h-29l-41 43l37 121q-123 10 -251 57t-224 133z" />
<glyph unicode="&#x15f;" horiz-adv-x="935" d="M39 135l102 129q72 -61 151 -93t179 -32q92 0 157.5 39t65.5 119q0 78 -64.5 105.5t-168.5 37.5q-59 6 -123 17.5t-117 40t-87 81t-34 138.5q0 72 30 129t81 97t118.5 61.5t141.5 21.5q117 0 204 -28.5t159 -82.5l-91 -135q-59 41 -124.5 65.5t-147.5 24.5 q-98 0 -152.5 -41t-54.5 -108q0 -70 69.5 -97.5t209.5 -41.5q53 -6 110.5 -21.5t103.5 -47.5t75.5 -84t29.5 -128q0 -70 -28.5 -126t-80 -97t-122 -64.5t-154.5 -25.5l-20 -68q59 -4 98 -21.5t62.5 -43t34 -54t10.5 -53.5q0 -27 -11.5 -56.5t-37 -55t-67.5 -42t-106 -16.5 q-41 0 -84 7t-94 30l35 88q43 -18 79 -24.5t64 -6.5q41 0 69 20.5t28 53.5q0 39 -33 60.5t-86 21.5h-29l-41 43l37 121q-92 10 -181 44t-165 99z" />
<glyph unicode="&#x2c6;" horiz-adv-x="1005" d="M162 1208l307 314h109l292 -310l-82 -79l-272 217l-274 -220z" />
<glyph unicode="&#x2da;" horiz-adv-x="1005" d="M358 1319q0 84 58.5 142.5t144.5 58.5q84 0 142.5 -58.5t58.5 -142.5t-58.5 -142.5t-142.5 -58.5q-86 0 -144.5 58.5t-58.5 142.5zM449 1319q0 -47 32.5 -80t79.5 -33t80 33t33 80t-33 80t-80 33t-79.5 -33t-32.5 -80z" />
<glyph unicode="&#x2dc;" horiz-adv-x="1005" d="M143 1249q41 86 101 134.5t121 48.5q37 0 74.5 -15.5t72.5 -33t67.5 -33t59.5 -15.5q31 0 61.5 21.5t63.5 70.5l106 -59q-45 -94 -99 -138t-120 -44q-37 0 -72.5 13t-70.5 29.5t-66.5 30t-62.5 13.5q-35 0 -62.5 -17.5t-66.5 -64.5z" />
<glyph unicode="&#x2000;" horiz-adv-x="926" />
<glyph unicode="&#x2001;" horiz-adv-x="1853" />
<glyph unicode="&#x2002;" horiz-adv-x="926" />
<glyph unicode="&#x2003;" horiz-adv-x="1853" />
<glyph unicode="&#x2004;" horiz-adv-x="617" />
<glyph unicode="&#x2005;" horiz-adv-x="463" />
<glyph unicode="&#x2006;" horiz-adv-x="308" />
<glyph unicode="&#x2007;" horiz-adv-x="308" />
<glyph unicode="&#x2008;" horiz-adv-x="231" />
<glyph unicode="&#x2009;" horiz-adv-x="370" />
<glyph unicode="&#x200a;" horiz-adv-x="102" />
<glyph unicode="&#x2010;" horiz-adv-x="802" d="M106 471v154h590v-154h-590z" />
<glyph unicode="&#x2011;" horiz-adv-x="802" d="M106 471v154h590v-154h-590z" />
<glyph unicode="&#x2012;" horiz-adv-x="802" d="M106 471v154h590v-154h-590z" />
<glyph unicode="&#x2013;" d="M41 469v158h942v-158h-942z" />
<glyph unicode="&#x2014;" horiz-adv-x="2048" d="M41 471v158h1966v-158h-1966z" />
<glyph unicode="&#x2018;" horiz-adv-x="450" d="M119 1051v223l114 235h105l-66 -231h58v-227h-211z" />
<glyph unicode="&#x2019;" horiz-adv-x="450" d="M119 1051l65 231h-57v227h211v-223l-115 -235h-104z" />
<glyph unicode="&#x201a;" horiz-adv-x="516" d="M152 -231l65 231h-57v227h190v-223l-114 -235h-84z" />
<glyph unicode="&#x201c;" horiz-adv-x="628" d="M57 1051v223l115 235h104l-65 -231h57v-227h-211zM350 1051v223l115 235h104l-65 -231h57v-227h-211z" />
<glyph unicode="&#x201d;" horiz-adv-x="628" d="M78 1051l65 231h-57v227h211v-223l-115 -235h-104zM371 1051l65 231h-57v227h211v-223l-115 -235h-104z" />
<glyph unicode="&#x201e;" horiz-adv-x="829" d="M152 -231l65 231h-57v227h211v-223l-115 -235h-104zM444 -231l66 231h-57v227h211v-223l-115 -235h-105z" />
<glyph unicode="&#x2026;" horiz-adv-x="1656" d="M170 0v227h211v-227h-211zM709 0v227h211v-227h-211zM1262 0v227h211v-227h-211z" />
<glyph unicode="&#x202f;" horiz-adv-x="370" />
<glyph unicode="&#x2039;" horiz-adv-x="614" d="M94 475l260 381h160l-252 -381l252 -381h-160z" />
<glyph unicode="&#x203a;" horiz-adv-x="614" d="M92 94l252 381l-252 381h160l260 -381l-260 -381h-160z" />
<glyph unicode="&#x205f;" horiz-adv-x="463" />
<glyph unicode="&#x20ac;" d="M29 543v110h90v115h-90v111h90v47q0 104 30.5 197.5t90 162t144.5 109.5t194 41q158 0 268 -71t162 -208l-166 -67q-35 88 -103.5 136t-158.5 48q-74 0 -127.5 -30t-88 -80t-51 -114.5t-16.5 -131.5v-39h430v-111h-430v-115h430v-110h-430v-54q0 -154 76 -249t207 -95 q106 0 169.5 50.5t116.5 144.5l152 -88q-72 -123 -177.5 -193.5t-262.5 -70.5q-111 0 -197 37.5t-144.5 105.5t-88 162t-29.5 209v41h-90z" />
<glyph unicode="&#x2122;" horiz-adv-x="1728" d="M76 1307v118h637v-118h-254v-707h-129v707h-254zM836 598v825h127l264 -528l258 528h125v-825h-129l-2 520l-203 -399h-109l-204 399v-520h-127z" />
<glyph unicode="&#x25fc;" horiz-adv-x="1013" d="M0 0v1014h1014v-1014h-1014z" />
</font>
</defs>
</svg>
