<?xml version="1.0" standalone="no"?>
<!DOCTYPE svg PUBLIC "-//W3C//DTD SVG 1.1//EN" "http://www.w3.org/Graphics/SVG/1.1/DTD/svg11.dtd" >
<svg xmlns="http://www.w3.org/2000/svg">
<metadata></metadata>
<defs>
<font id="pf_dintext_prolight" horiz-adv-x="991" >
<font-face units-per-em="2048" ascent="1536" descent="-512" />
<missing-glyph horiz-adv-x="456" />
<glyph horiz-adv-x="0" />
<glyph horiz-adv-x="682" />
<glyph unicode=" "  horiz-adv-x="456" />
<glyph unicode="&#x09;" horiz-adv-x="456" />
<glyph unicode="&#xa0;" horiz-adv-x="456" />
<glyph unicode="!" horiz-adv-x="464" d="M160 0v162h149v-162h-149zM168 1425h129l-18 -1052h-95z" />
<glyph unicode="&#x22;" horiz-adv-x="565" d="M125 1030v395h100v-395h-100zM344 1030v395h100v-395h-100z" />
<glyph unicode="#" d="M25 451v90h206q2 16 8.5 66t14.5 107.5t15 107.5t10 67h-195v92h209q2 18 10 81.5t18.5 137.5t19.5 138.5t11 82.5h97l-60 -440h262q2 12 7.5 46t11.5 79t13 95t13 95t10.5 79t6.5 46h98l-61 -440h206v-92h-219l-47 -348h207v-90h-219l-60 -451h-100l62 451h-265 q-2 -18 -11 -84t-19.5 -141.5t-19.5 -141.5t-11 -84h-98l63 451h-194zM328 541h264q2 16 9 66t15.5 107.5t14.5 107.5t8 67h-262z" />
<glyph unicode="$" d="M57 141q18 25 38 53.5t40 51.5q66 -53 149 -90t175 -45v542q-74 18 -141.5 46t-120 72t-83 106.5t-30.5 152.5q0 80 26.5 149.5t74.5 121t118 83t156 37.5v160h82v-162q90 -6 175 -32.5t154 -73.5q-16 -27 -32.5 -55.5t-32.5 -55.5q-59 37 -126 61.5t-138 32.5v-526 q84 -23 155.5 -48.5t123.5 -69.5t82 -110.5t30 -166.5q0 -86 -29 -154.5t-80 -119t-122.5 -79t-159.5 -34.5v-230h-82v230q-111 6 -215.5 44t-186.5 109zM219 1026q0 -55 22.5 -95t57.5 -66.5t77 -44t83 -27.5v505q-98 -10 -169 -77.5t-71 -194.5zM541 113 q113 10 184.5 77.5t71.5 184.5q0 70 -26 115t-64.5 72.5t-82.5 43t-83 29.5v-522z" />
<glyph unicode="%" horiz-adv-x="1570" d="M115 807v385q0 57 21.5 102t57 76t83 47.5t98.5 16.5t98 -16.5t84 -47.5t58.5 -76t21.5 -102v-385q0 -59 -21.5 -104.5t-58.5 -76t-84 -47t-98 -16.5t-98.5 16.5t-83 47t-57 76t-21.5 104.5zM219 813q0 -70 43 -109.5t113 -39.5q72 0 113.5 39.5t41.5 109.5v371 q0 70 -42 109.5t-113 39.5q-70 0 -113 -40t-43 -109v-371zM334 -43l868 1513h101l-871 -1513h-98zM934 233v388q0 57 21.5 101t57.5 74.5t83 47t98 16.5t98 -16.5t84 -47t58.5 -74.5t21.5 -101v-388q0 -57 -21.5 -102t-58.5 -76.5t-84 -48t-98 -16.5t-98 16.5t-83 48 t-57.5 76.5t-21.5 102zM1038 242q0 -72 43 -112t113 -40q72 0 114 40t42 112v370q0 68 -42 109t-114 41q-70 0 -113 -41t-43 -109v-370z" />
<glyph unicode="&#x26;" horiz-adv-x="1292" d="M150 336q0 139 75.5 249t227.5 208q-37 47 -68 89t-53.5 83t-35.5 80.5t-13 84.5q0 61 20.5 119t63.5 101t108.5 68.5t155.5 25.5q88 0 169 -26.5t152 -90.5l-82 -96q-70 55 -125 73.5t-131 18.5q-55 0 -94 -16.5t-63.5 -44t-34.5 -61.5t-10 -68q0 -31 29.5 -87.5 t76.5 -127t105.5 -149.5t118 -154.5t110.5 -141t86 -111.5q37 66 58.5 133.5t31.5 133.5q31 -4 61.5 -8.5t61.5 -8.5q-16 -92 -48 -180t-85 -172l205 -260h-158l-131 166q-84 -86 -182.5 -132t-210.5 -46q-94 0 -167 26.5t-123 72.5t-75.5 110.5t-25.5 138.5zM279 346 q0 -111 74.5 -175.5t191.5 -64.5q90 0 174 46.5t139 109.5q-86 111 -168 219t-168 219q-111 -70 -177 -156.5t-66 -197.5z" />
<glyph unicode="'" horiz-adv-x="440" d="M168 1030v395h98v-395h-98z" />
<glyph unicode="(" horiz-adv-x="565" d="M119 621q0 125 27.5 244.5t75.5 230t112.5 209t138.5 180.5l70 -43q-63 -86 -114.5 -185.5t-88.5 -204t-56.5 -211t-19.5 -210.5q0 -113 20.5 -224.5t57.5 -218t87 -204t112 -181.5l-62 -49q-72 82 -137.5 180.5t-114.5 209t-78.5 230.5t-29.5 247z" />
<glyph unicode=")" horiz-adv-x="565" d="M47 -199q123 170 201 385t78 443q0 104 -19.5 211.5t-56.5 212t-88 203t-115 184.5l70 43q74 -82 138 -180.5t112.5 -209t76 -230.5t27.5 -245t-29.5 -245.5t-79 -231t-114 -209t-135.5 -178.5z" />
<glyph unicode="*" horiz-adv-x="720" d="M59 1167q8 23 16.5 53.5t16.5 57.5l234 -98l-19 250h115l-19 -250q18 8 50 21t67 27.5t68 28t51 21.5l33 -113l-242 -65l164 -191q-20 -16 -47 -36.5t-47 -34.5l-135 217q-10 -16 -29 -46t-39.5 -63t-37.5 -62.5t-28 -47.5l-94 73l160 191q-18 4 -51 13t-68 20.5 t-67.5 20.5t-51.5 13z" />
<glyph unicode="+" d="M57 537v104h385v391h105v-391h385v-104h-385v-396h-105v396h-385z" />
<glyph unicode="," horiz-adv-x="436" d="M111 -217l59 217h-45v180h168v-176l-100 -221h-82z" />
<glyph unicode="-" horiz-adv-x="780" d="M106 459v121h568v-121h-568z" />
<glyph unicode="." horiz-adv-x="419" d="M129 0v180h166v-180h-166z" />
<glyph unicode="/" horiz-adv-x="903" d="M53 -70l631 1549h107l-633 -1549h-105z" />
<glyph unicode="0" d="M109 379v668q0 94 31.5 166.5t86 122.5t124 76t145.5 26t145.5 -26t123.5 -76t86 -122.5t32 -166.5v-668q0 -94 -32 -167t-86 -123t-124 -75.5t-145 -25.5q-76 0 -145.5 25.5t-124 75.5t-86 123t-31.5 167zM236 391q0 -127 70.5 -202.5t189.5 -75.5q117 0 187.5 75.5 t70.5 202.5v643q0 127 -71 202t-187 75q-119 0 -189.5 -75t-70.5 -202v-643z" />
<glyph unicode="1" d="M260 1151v139l195 135h133v-1425h-131v1288z" />
<glyph unicode="2" d="M98 0v129l572 733q37 47 58.5 104.5t21.5 110.5q0 47 -15.5 89t-47.5 75t-78 51.5t-107 18.5q-96 0 -167 -61.5t-91 -159.5l-131 18q14 76 50 136.5t88 102.5t116.5 64.5t136.5 22.5q86 0 156.5 -25t120.5 -71t79 -110.5t29 -146.5q0 -66 -24.5 -139.5t-76.5 -136.5 l-530 -678h619v-127h-779z" />
<glyph unicode="3" d="M98 268l127 19q23 -88 89.5 -134.5t160.5 -46.5q61 0 114.5 23t91.5 62.5t60.5 95t22.5 123.5q0 133 -76 205.5t-188 72.5h-99v117h80q115 0 188.5 68.5t73.5 181.5q0 115 -72.5 188.5t-187.5 73.5q-78 0 -148.5 -48t-96.5 -141l-127 19q14 63 50 117.5t85 92.5 t110.5 59.5t128.5 21.5q100 0 175 -32t122 -84t71 -120.5t24 -142.5q0 -39 -9.5 -81t-32 -84t-60.5 -79t-93 -65q61 -29 103 -69t67 -85t35 -92t10 -88q0 -96 -31.5 -174t-88 -135.5t-135.5 -88t-171 -30.5q-59 0 -118.5 14t-111 46t-89 86t-54.5 134z" />
<glyph unicode="4" d="M59 223v125l498 1077h145l-505 -1079h491v430h129v-430h123v-123h-123v-223h-129v223h-629z" />
<glyph unicode="5" d="M100 266l125 23q23 -94 90.5 -140.5t165.5 -46.5q80 0 134.5 31t86 80t45 110.5t13.5 120.5v74q0 61 -12.5 118.5t-43 101.5t-82 70t-128.5 26q-68 0 -131.5 -38t-102.5 -98h-125v727h721v-122h-600v-455q72 68 141.5 86t130.5 18q90 0 158 -30.5t112 -84t66.5 -128 t22.5 -162.5v-90q0 -98 -22.5 -183.5t-72 -149t-126 -99t-187.5 -35.5q-72 0 -132 15t-109.5 48t-84 85t-53.5 128z" />
<glyph unicode="6" d="M109 406q0 61 12 119.5t41 111.5l395 788h143l-327 -651l4 -2q35 23 77 33t81 10q76 0 142 -28.5t114.5 -80t76 -123t27.5 -155.5q0 -119 -35 -203t-92 -136t-131 -76.5t-150 -24.5q-72 0 -139 26.5t-120.5 78.5t-86 130t-32.5 183zM236 410q0 -139 70.5 -222.5 t193.5 -83.5q55 0 103 21.5t83 60.5t55.5 95.5t20.5 128.5q0 70 -20.5 124t-56.5 92t-83 57t-102 19t-103.5 -19t-84.5 -57t-56 -92.5t-20 -123.5z" />
<glyph unicode="7" d="M109 1079v346h778v-133l-506 -1292h-145l509 1298h-509v-219h-127z" />
<glyph unicode="8" d="M80 395q0 47 13 98.5t41 97.5t69 84t96 60q-53 23 -90 57.5t-59.5 76.5t-33 87t-10.5 88q0 82 30 154t83 124t124 83t155 31q90 0 162.5 -31t123 -83t78 -124t27.5 -154q0 -96 -46 -179t-145 -130l2 -2q57 -20 98.5 -57t68 -83t39 -97.5t12.5 -100.5q0 -90 -34 -165.5 t-90.5 -129t-133 -83t-162.5 -29.5t-162 29.5t-133.5 83t-90 129t-32.5 165.5zM207 397q0 -61 23.5 -114.5t63.5 -92t93 -61.5t111 -23q57 0 110.5 23t94 61.5t64.5 92t24 114.5q0 63 -25 115.5t-64.5 89.5t-93 57.5t-110.5 20.5t-109.5 -20.5t-92.5 -57.5t-64.5 -89 t-24.5 -116zM236 1049q0 -66 22.5 -115t59 -81t84 -48.5t96.5 -16.5t96 15.5t85 48.5t60.5 82t22.5 115q0 63 -22.5 113t-59.5 85t-85 52.5t-97 17.5t-96.5 -17.5t-84 -52.5t-59 -85t-22.5 -113z" />
<glyph unicode="9" d="M106 999q0 119 34 202t91.5 135.5t131 76t151.5 23.5q72 0 140.5 -26t122.5 -78t87 -130t33 -182q0 -131 -51 -234l-404 -788h-143l340 659l-6 2q-37 -25 -82 -34t-80 -9q-78 0 -144.5 27t-115.5 77t-77 120.5t-28 158.5zM233 1016q0 -70 21.5 -124t57.5 -92t85 -57.5 t105 -19.5q55 0 102 19.5t83 57.5t56.5 92t20.5 124q0 137 -70.5 220t-191.5 83q-55 0 -104.5 -20.5t-85.5 -60.5t-57.5 -96t-21.5 -126z" />
<glyph unicode=":" horiz-adv-x="421" d="M125 0v180h166v-180h-166zM125 612v183h166v-183h-166z" />
<glyph unicode=";" horiz-adv-x="421" d="M111 -217l59 217h-45v180h168v-188l-100 -209h-82zM127 612v181h166v-181h-166z" />
<glyph unicode="&#x3c;" d="M76 541v98l827 393v-114l-698 -328q20 -8 74.5 -34t125 -59.5t149.5 -71.5t149.5 -70.5t125 -58.5t74.5 -34v-117z" />
<glyph unicode="=" d="M57 336v108h875v-108h-875zM57 715v106h875v-106h-875z" />
<glyph unicode="&#x3e;" d="M78 145v117q20 8 74.5 34t125 58.5t149.5 70.5t149.5 71.5t124 58.5t73.5 35l-694 328v114l825 -393v-98z" />
<glyph unicode="?" horiz-adv-x="964" d="M76 1065q23 92 64.5 161.5t98 116t124 69t141.5 22.5q88 0 158.5 -28t121 -77t78 -115.5t27.5 -144.5q0 -47 -11.5 -88t-32 -78t-44 -69.5t-47.5 -61.5q-31 -37 -65 -71.5t-61.5 -70.5t-45 -75t-17.5 -84v-119h-135v123q0 63 23.5 118.5t64.5 102.5q29 37 69 78t75.5 86 t61.5 93t26 102q0 37 -12.5 80t-42 81.5t-80 64.5t-128.5 26q-66 0 -114.5 -29t-83.5 -70t-55.5 -87t-24.5 -81zM422 0v162h149v-162h-149z" />
<glyph unicode="@" horiz-adv-x="1640" d="M84 688q0 160 56.5 298t156.5 239.5t240.5 160t308.5 58.5q147 0 276 -47t224.5 -132t150.5 -206t55 -268q0 -135 -29.5 -230.5t-78.5 -156t-114.5 -88t-139.5 -27.5q-16 0 -45 6t-57.5 19.5t-53 36t-33.5 57.5h-8q-14 -29 -41.5 -49.5t-61.5 -34t-71 -19.5t-71 -6 q-53 0 -102.5 13.5t-88.5 40t-61.5 68.5t-22.5 101q0 45 16.5 86t48 72t80 48t109.5 17h254v99q0 72 -45 112.5t-154 40.5q-57 0 -109 -21.5t-91 -55.5l-68 67q55 51 129 78t145 27q63 0 118 -10.5t93.5 -38t60 -74.5t21.5 -119v-338q0 -57 29 -93t88 -36q51 0 96 23.5 t79 72.5t52.5 126t18.5 186q0 135 -50.5 239.5t-133 175t-188 107.5t-216.5 37q-145 0 -267 -50.5t-211 -138.5t-138.5 -210t-49.5 -263q0 -154 49.5 -278.5t138.5 -212.5t213 -135.5t275 -47.5q125 0 223.5 19.5t194.5 66.5l35 -92q-102 -39 -211 -63.5t-231 -24.5 q-172 0 -316.5 53.5t-251 152.5t-166 241.5t-59.5 320.5zM569 530q0 -63 48.5 -101t140.5 -38q45 0 85 8.5t70.5 26.5t49 48t18.5 71v117h-236q-76 0 -126 -33t-50 -99z" />
<glyph unicode="A" horiz-adv-x="1212" d="M20 0q129 358 259.5 712.5t261.5 712.5h127l522 -1425h-148q-31 84 -60.5 168t-57.5 170h-639q-31 -86 -60.5 -170t-58.5 -168h-146zM324 457h559l-160 461l-117 329h-6q-16 -53 -51 -153.5t-74 -210.5q-45 -123 -85 -239t-66 -187z" />
<glyph unicode="B" horiz-adv-x="1212" d="M158 0v1425h530q100 0 177 -27.5t129.5 -76.5t79 -116.5t26.5 -147.5q0 -41 -10.5 -86t-36 -88t-69.5 -80t-112 -62v-6q68 -14 117 -51t81 -85t47.5 -103.5t15.5 -106.5q0 -90 -31 -161.5t-84 -122t-123 -78t-150 -27.5h-587zM297 127h401q74 0 129.5 21.5t92 58.5t54 87 t17.5 105q0 53 -17.5 102.5t-54 86.5t-92 59.5t-129.5 22.5h-401v-543zM297 791h371q141 0 217 72.5t76 185.5q0 109 -75 182.5t-218 73.5h-371v-514z" />
<glyph unicode="C" horiz-adv-x="1097" d="M106 510v408q0 104 30 197t91.5 165t155.5 114t223 42q166 0 283 -78t172 -207l-129 -59q-39 94 -122 153.5t-202 59.5q-96 0 -165.5 -33t-113.5 -87.5t-64.5 -126t-20.5 -147.5v-395q0 -78 20.5 -149.5t63.5 -127t112.5 -89t167.5 -33.5q121 0 204 61.5t124 165.5 l129 -61q-53 -137 -172 -216t-287 -79q-131 0 -225 42t-155.5 113.5t-90.5 167t-29 199.5z" />
<glyph unicode="D" horiz-adv-x="1253" d="M158 0v1425h465q160 0 282.5 -61t188.5 -201q37 -78 45 -184.5t8 -241.5q0 -152 -7 -263.5t-42 -194.5q-35 -80 -86 -133.5t-117 -85t-142.5 -46t-162.5 -14.5h-432zM297 127h313q111 0 187.5 31.5t123 90t67 139.5t20.5 179v281q0 127 -29 214t-81 139t-126 74.5 t-162 22.5h-313v-1171z" />
<glyph unicode="E" horiz-adv-x="1097" d="M158 0v1425h884v-127h-745v-516h635v-123h-635v-532h745v-127h-884z" />
<glyph unicode="F" horiz-adv-x="1056" d="M158 0v1425h884v-127h-743v-522h633v-123h-633v-653h-141z" />
<glyph unicode="G" horiz-adv-x="1212" d="M104 510v408q0 104 31 197t93.5 165t155.5 114t220 42q166 0 283 -78t170 -207q-2 -2 -21.5 -10t-42 -19.5t-42 -19.5t-21.5 -10q-41 94 -124 153.5t-200 59.5q-92 0 -160.5 -33t-113.5 -87.5t-67.5 -126t-22.5 -147.5v-403q0 -78 22.5 -149.5t67.5 -127t113.5 -89 t160.5 -33.5q80 0 145.5 30.5t113.5 82.5t74 119t26 140v137h-312v125h451v-254q0 -109 -36 -200.5t-100.5 -159.5t-157.5 -105.5t-206 -37.5q-129 0 -223 42t-155.5 114.5t-91.5 168t-30 199.5z" />
<glyph unicode="H" horiz-adv-x="1292" d="M158 0v1425h139v-643h696v643h140v-1425h-140v659h-696v-659h-139z" />
<glyph unicode="I" horiz-adv-x="464" d="M162 0v1425h139v-1425h-139z" />
<glyph unicode="J" horiz-adv-x="937" d="M45 119l100 92q47 -41 97.5 -66.5t107.5 -25.5q61 0 116.5 15.5t98.5 52t67.5 100t24.5 162.5v976h140v-1005q0 -123 -36 -205t-96.5 -133t-139.5 -72.5t-167 -21.5q-98 0 -177 35.5t-136 95.5z" />
<glyph unicode="K" horiz-adv-x="1253" d="M158 0v1425h139v-839h4l307 377l383 462h158q-18 -23 -54 -65.5t-80 -97t-93.5 -113.5t-93.5 -113.5t-78.5 -97.5t-53.5 -66q20 -37 62.5 -105.5t93.5 -153.5t107.5 -178t107.5 -177t92 -152.5t64 -105.5h-160q-20 33 -55 93.5t-80 134t-92.5 154.5t-92.5 154.5 t-80.5 134t-54.5 93.5q-23 -27 -65.5 -79t-91 -110.5t-91.5 -110.5t-63 -79v-385h-139z" />
<glyph unicode="L" horiz-adv-x="1097" d="M158 0v1425h139v-1298h745v-127h-884z" />
<glyph unicode="M" horiz-adv-x="1525" d="M158 0v1425h139q12 -29 36.5 -81t54.5 -116.5t62.5 -136t63.5 -136t54.5 -118t37.5 -79.5q12 -25 36 -77t48.5 -108.5t48 -108.5t35.5 -77h4l166 369q12 29 37 81t55.5 117.5t62 136t62.5 136t54.5 118t37.5 80.5h136v-1425h-140v1112l-4 -2l-160 -358q-10 -23 -30.5 -65 t-45 -94t-51 -108.5t-51 -108.5t-44 -94t-29.5 -65h-121l-254 545q-12 27 -35 75t-45.5 100t-45 99t-34.5 76l-4 -2v-1110h-137z" />
<glyph unicode="N" horiz-adv-x="1368" d="M160 0v1425h137l516 -786l258 -408l4 5v1189h135v-1425h-135l-528 803l-246 385q-2 0 -2 -1t-2 -1v-1186h-137z" />
<glyph unicode="O" horiz-adv-x="1193" d="M98 510v408q0 104 31 197t93.5 165t155.5 114t220 42q129 0 222 -39t154.5 -108.5t91.5 -164t30 -206.5v-408q0 -121 -35 -217t-99.5 -164t-156.5 -104.5t-207 -36.5q-127 0 -221 42t-155.5 113.5t-92.5 167t-31 199.5zM236 514q0 -78 20 -149.5t64.5 -127t114 -89 t165.5 -33.5q88 0 153.5 30.5t110.5 84t67.5 128t22.5 160.5v395q0 82 -21.5 154t-66.5 124t-111.5 83t-154.5 31q-96 0 -164.5 -33t-112.5 -86t-65.5 -125t-21.5 -148v-399z" />
<glyph unicode="P" horiz-adv-x="1155" d="M160 0v1425h516q86 0 169 -23.5t146.5 -73.5t102.5 -131t39 -196q0 -72 -28 -145.5t-82 -131.5t-135 -95t-188 -37h-401v-592h-139zM299 721h387q78 0 134.5 25.5t93 65.5t54 91.5t17.5 104.5q0 74 -23.5 128t-65.5 90t-98.5 54t-119.5 18h-379v-577z" />
<glyph unicode="Q" horiz-adv-x="1212" d="M100 510v408q0 104 31 197t93.5 165t155.5 114t218 42q117 0 209 -39t156.5 -108.5t98.5 -164t34 -206.5v-408q0 -160 -64 -283l195 -155l-76 -95q-8 6 -34.5 27t-57.5 45.5t-58.5 47t-39.5 32.5q-131 -141 -363 -141q-127 0 -220 42t-154.5 113.5t-92.5 167t-31 199.5z M238 516q0 -78 22.5 -149.5t67.5 -127t112.5 -88t159.5 -32.5q78 0 139.5 26.5t106.5 73.5q-6 4 -35 26.5t-62.5 50.5t-63.5 52.5t-42 34.5l80 92l190 -156q20 45 31.5 95.5t11.5 105.5v391q0 82 -24.5 153t-70.5 124t-111.5 84t-149.5 31q-92 0 -159.5 -33t-112.5 -86.5 t-67.5 -125t-22.5 -147.5v-395z" />
<glyph unicode="R" horiz-adv-x="1212" d="M160 0v1425h567q88 0 163 -26.5t130 -76.5t86 -119.5t31 -155.5q0 -152 -90.5 -254.5t-237.5 -137.5l303 -655h-158l-288 643h-367v-643h-139zM299 766h391q129 0 216 72t87 209q0 68 -23.5 116.5t-63.5 79.5t-93 46.5t-115 15.5h-399v-539z" />
<glyph unicode="S" horiz-adv-x="1099" d="M23 162l88 112q90 -76 202.5 -115.5t237.5 -39.5q74 0 138.5 16.5t112.5 50t74.5 85t26.5 122.5q0 72 -30.5 119t-81 76.5t-114 47t-130.5 30.5q-82 14 -162 34.5t-142.5 60.5t-101.5 107.5t-39 175.5q0 94 35 167t96.5 124t145.5 78t182 27q260 0 434 -125l-77 -117 q-80 49 -169.5 78t-189.5 29q-139 0 -229 -64.5t-90 -196.5q0 -68 29.5 -109.5t81.5 -69t124 -45t156 -34.5q74 -16 148.5 -37.5t134 -63.5t96.5 -112.5t37 -181.5q0 -92 -36 -166.5t-101.5 -127t-159 -81t-205.5 -28.5q-135 0 -273.5 43t-248.5 131z" />
<glyph unicode="T" horiz-adv-x="987" d="M8 1305v120h971v-120h-414v-1305h-139v1305h-418z" />
<glyph unicode="U" horiz-adv-x="1253" d="M129 504v921h137v-903q0 -80 24.5 -153.5t71 -129t114 -88t153.5 -32.5q160 0 258 103.5t98 291.5v911h141v-929q0 -117 -35.5 -210t-102 -160t-159 -102.5t-202.5 -35.5q-119 0 -212 40t-156.5 109.5t-96.5 163.5t-33 203z" />
<glyph unicode="V" horiz-adv-x="1097" d="M16 1425h148q8 -29 26.5 -85t40 -124.5t46 -145.5t47 -145.5t40 -125t27.5 -84.5l154 -488l8 2q35 123 74 244t75 244l224 708h149l-471 -1425h-117z" />
<glyph unicode="W" horiz-adv-x="1671" d="M33 1425h147q41 -186 85 -368.5t85 -368.5l101 -436q2 0 3 -1t3 -1l114 436q16 61 44 161.5t57.5 208t57.5 208t46 161.5h115q53 -188 104.5 -374.5t104.5 -372.5l117 -428h4q23 102 46 211.5t46 212.5l172 751h149l-356 -1425h-121l-326 1180h-2q-16 -66 -47.5 -182.5 t-68.5 -249.5l-203 -748h-125z" />
<glyph unicode="X" horiz-adv-x="1048" d="M10 0l436 731l-407 694h156l329 -583l330 583h154l-408 -694l436 -731h-153l-359 621l-360 -621h-154z" />
<glyph unicode="Y" horiz-adv-x="1007" d="M8 1425h146l219 -442l129 -270q37 72 71.5 145.5t69.5 147.5q53 104 105.5 208.5t103.5 210.5h141q-109 -211 -214 -418.5t-212 -418.5v-588h-131v588z" />
<glyph unicode="Z" horiz-adv-x="1017" d="M68 0v123l725 1182h-697v120h854v-112l-727 -1186h727v-127h-882z" />
<glyph unicode="[" horiz-adv-x="507" d="M152 -219v1649h319v-95h-197v-1462h197v-92h-319z" />
<glyph unicode="\" horiz-adv-x="624" d="M-4 1485h102l516 -1571h-104z" />
<glyph unicode="]" horiz-adv-x="507" d="M63 -127h195v1462h-195v95h318v-1649h-318v92z" />
<glyph unicode="^" d="M70 676l383 745h98l381 -743h-115l-317 625q-8 -18 -32 -66.5t-56.5 -112t-68.5 -134t-68.5 -134t-56 -113t-32.5 -67.5h-116z" />
<glyph unicode="_" horiz-adv-x="1017" d="M0 -141h1018v-101h-1018v101z" />
<glyph unicode="`" horiz-adv-x="997" d="M410 1468l133 45l153 -339l-84 -33z" />
<glyph unicode="a" horiz-adv-x="989" d="M82 283q0 59 20.5 112.5t61.5 93t101.5 62t142.5 22.5h346v132q0 98 -60.5 149t-204.5 51q-170 0 -262 -94l-82 88q59 63 147.5 95t194.5 32q80 0 152 -14.5t126 -50t86 -98t32 -158.5v-705h-129v98l-2 2q-39 -59 -123 -85.5t-189 -26.5q-160 0 -259 77.5t-99 217.5z M205 289q0 -88 65.5 -137.5t186.5 -49.5q49 0 101 8.5t96 32t72 62.5t28 100v162h-316q-111 0 -172 -45t-61 -133z" />
<glyph unicode="b" horiz-adv-x="985" d="M109 0v1485h129v-615h4q104 156 295 156q111 0 181 -44t112 -115.5t59.5 -162t17.5 -184.5q0 -102 -16.5 -197.5t-59.5 -170t-116.5 -119.5t-186.5 -45q-74 0 -150.5 25.5t-135.5 111.5h-4v-125h-129zM238 506q0 -61 9 -131t38.5 -130.5t83 -100.5t141.5 -40q86 0 137 35 t79 91.5t37 129t9 148.5q0 68 -9 136.5t-39 125.5t-82 93t-138 36q-80 0 -132.5 -35t-82 -90t-40.5 -125.5t-11 -142.5z" />
<glyph unicode="c" horiz-adv-x="866" d="M59 506q0 141 39 240.5t102.5 161t146.5 90t169 28.5q96 0 174 -35t139 -92l-84 -94q-41 43 -99 70.5t-120 27.5q-162 0 -250 -99t-88 -298q0 -197 88.5 -298.5t249.5 -101.5q66 0 123.5 32t95.5 69l86 -90q-61 -59 -140 -94t-175 -35q-86 0 -169 27.5t-146.5 90 t-102.5 161t-39 239.5z" />
<glyph unicode="d" horiz-adv-x="985" d="M82 502q0 96 18.5 190t63.5 168t121.5 120t193.5 46q92 0 160 -37t109 -98h4v594h129v-1485h-129v139h-4q-70 -90 -144 -120.5t-149 -30.5q-109 0 -180.5 43t-114.5 114.5t-60.5 164.5t-17.5 192zM217 508q0 -63 8 -133t36 -128.5t82 -96t144 -37.5q86 0 137.5 38.5 t80 97t38 127.5t9.5 130q0 72 -11.5 142.5t-40 125.5t-81 90t-132.5 35q-88 0 -141 -36t-81.5 -93t-38 -126t-9.5 -136z" />
<glyph unicode="e" horiz-adv-x="989" d="M86 504q0 152 39 252t99.5 160.5t135 85t146.5 24.5q92 0 165.5 -32.5t127 -92t82 -143.5t28.5 -185v-100h-694v-16q1 -67 15 -127q16 -68 55 -118t99 -80t144 -30q55 0 121 24t117 64l80 -88q-68 -59 -148 -86.5t-166 -27.5q-78 0 -156.5 21.5t-143 77.5t-105.5 156.5 t-41 260.5zM215 580h565q-4 166 -76.5 246.5t-201.5 80.5q-125 0 -202 -84t-85 -243z" />
<glyph unicode="f" horiz-adv-x="550" d="M53 905v111h123v219q0 63 19.5 111.5t53.5 81t79 48t96 15.5h108v-121h-90q-41 0 -67.5 -13.5t-41 -36t-19.5 -50t-5 -56.5v-198h223v-111h-223v-905h-133v905h-123z" />
<glyph unicode="g" horiz-adv-x="1034" d="M96 492q0 100 17.5 196t60.5 172t115.5 122t183.5 46q76 0 152.5 -28.5t136.5 -110.5h4v127h129l2 -1004q0 -115 -36 -196.5t-95 -134t-139 -77t-166 -24.5q-80 0 -157 30t-140 87l84 94q41 -35 98 -62.5t121 -27.5q127 0 212 73.5t87 215.5v153h-4q-55 -80 -130 -116.5 t-167 -36.5q-109 0 -180.5 43t-112.5 113.5t-58.5 160.5t-17.5 185zM229 508q0 -68 9.5 -137.5t39 -126t83 -92t141.5 -35.5q80 0 131 34.5t80.5 90t41 126t11.5 142.5q0 61 -9 130t-38 127t-80 97t-137 39q-90 0 -144.5 -38t-83 -96t-37 -128t-8.5 -133z" />
<glyph unicode="h" horiz-adv-x="1038" d="M123 0v1485h129v-621h6q51 82 135 122t170 40q78 0 143.5 -22.5t111.5 -66.5t71.5 -109.5t25.5 -151.5v-676h-131v629q0 129 -59 199.5t-195 70.5q-57 0 -107 -20.5t-88 -58.5t-60.5 -91t-22.5 -119v-610h-129z" />
<glyph unicode="i" horiz-adv-x="434" d="M147 1292v133h138v-133h-138zM152 0v1016h131v-1016h-131z" />
<glyph unicode="j" horiz-adv-x="473" d="M-14 -299h47q68 0 104.5 42t36.5 120v1153h133v-1163q0 -61 -20.5 -110.5t-55 -84.5t-85 -54.5t-107.5 -19.5h-53v117zM172 1292v133h137v-133h-137z" />
<glyph unicode="k" horiz-adv-x="1009" d="M141 0v1483h129v-1014h4q23 25 62 68t86 95t97 109.5t97.5 109.5t85 96t60.5 69h153l-337 -379q16 -27 48.5 -77t73.5 -111.5t85 -130t85 -130t74 -111.5t51 -77h-151l-352 545q-16 -18 -47 -52t-65 -71t-64.5 -71t-45.5 -52v-299h-129z" />
<glyph unicode="l" horiz-adv-x="473" d="M141 223v1260h131v-1245q0 -121 131 -121h33v-117h-51q-111 0 -177.5 49t-66.5 174z" />
<glyph unicode="m" horiz-adv-x="1710" d="M129 0v1016h129v-148h4q49 82 132 119t169 37q115 0 191.5 -46t124.5 -128v2q2 0 2 -2q61 92 149 133t199 41q74 0 137.5 -23.5t109.5 -67.5t72.5 -108.5t26.5 -146.5v-678h-129v629q0 123 -60.5 197.5t-193.5 74.5q-57 0 -107.5 -20.5t-88.5 -57.5t-59.5 -90t-21.5 -119 v-614h-129v629q0 123 -64.5 197.5t-195.5 74.5q-117 0 -192.5 -78t-75.5 -209v-614h-129z" />
<glyph unicode="n" horiz-adv-x="1032" d="M119 0v1016h129v-152h6q51 82 135 122t170 40q78 0 143.5 -22.5t111.5 -66.5t71.5 -109.5t25.5 -151.5v-676h-129v629q0 129 -60 199.5t-200 70.5q-57 0 -107 -20.5t-87 -58.5t-58.5 -91t-21.5 -119v-610h-129z" />
<glyph unicode="o" horiz-adv-x="1028" d="M98 506q0 115 20.5 194.5t59.5 141.5q53 86 141 134t207 48q111 0 195 -43t135 -123q36 -53 56 -142q19 -81 18 -194v-22q-2 -121 -25.5 -205t-62.5 -141q-57 -86 -145.5 -126t-192.5 -40q-209 0 -314 135q-49 66 -70.5 159t-21.5 224zM227 504q0 -98 15.5 -165 t44.5 -114q35 -57 91 -89t132 -32q80 0 143.5 35t98.5 113q20 41 33.5 100.5t13.5 151.5q0 98 -11.5 158.5t-31.5 101.5q-74 145 -236 145q-78 0 -137 -34.5t-94 -94.5q-31 -49 -46.5 -113.5t-15.5 -162.5z" />
<glyph unicode="p" horiz-adv-x="1015" d="M117 -406v1422h129v-142l4 -2q61 90 141 122t158 32q111 0 181.5 -43t111.5 -114.5t57 -165t16 -191.5q0 -96 -17 -190.5t-61 -168t-121 -119.5t-194 -46q-96 0 -162.5 37.5t-109.5 103.5h-4v-535h-129zM246 508q0 -72 11 -142.5t40 -126t81 -90t132 -34.5 q88 0 141.5 35.5t82 93t37.5 126t9 136.5q0 63 -7 134t-32.5 129t-78 96t-142.5 38q-86 0 -140 -39t-84 -98t-40 -128t-10 -130z" />
<glyph unicode="q" horiz-adv-x="1032" d="M109 494q0 111 19 208t64.5 168.5t120 113.5t187.5 42q82 0 155.5 -35t116.5 -121h2v146h131v-1428h-131v555h-2q-49 -72 -120.5 -113.5t-168.5 -41.5q-111 0 -182.5 42t-114.5 112.5t-60 162t-17 189.5zM240 506q0 -68 9 -136.5t37.5 -126t82 -93t141.5 -35.5 q80 0 131 34.5t81 90t41 126t11 142.5q0 61 -9 132t-38 131t-80 100t-137 40q-90 0 -143.5 -38.5t-81 -99t-36.5 -132.5t-9 -135z" />
<glyph unicode="r" horiz-adv-x="722" d="M141 0v1016h129v-152h9q53 96 131 130q73 32 153 32h10q47 -2 87 -10t69 -25l-53 -125q-33 18 -69 26.5t-70 8.5q-117 0 -192 -73.5t-75 -209.5v-618h-129z" />
<glyph unicode="s" horiz-adv-x="925" d="M41 123l80 100q145 -121 344 -121q45 0 91 10.5t82 33t58.5 57.5t22.5 86q0 45 -20.5 75.5t-56.5 50t-83 30t-98 16.5q-63 8 -127 20.5t-115 40t-84 75.5t-33 128q0 70 29 126t78 95t116.5 59.5t145.5 20.5q113 0 196 -25.5t152 -76.5l-71 -103q-59 39 -126 62.5 t-149 23.5q-109 0 -175.5 -46t-68.5 -130q0 -43 20.5 -69.5t58.5 -44t90.5 -27.5t117.5 -19q57 -6 116.5 -22.5t107.5 -48t79 -82.5t31 -129q0 -133 -105.5 -217t-289.5 -84q-111 0 -218.5 31.5t-195.5 103.5z" />
<glyph unicode="t" horiz-adv-x="569" d="M61 905v111h129v260h132v-260h172v-111h-172v-643q0 -29 4 -55.5t18 -47t38 -31.5t64 -11h76v-117h-108q-111 0 -167.5 61.5t-56.5 176.5v667h-129z" />
<glyph unicode="u" horiz-adv-x="1054" d="M123 336v680h131v-629q0 -131 68.5 -203.5t197.5 -72.5q57 0 106.5 20.5t85.5 59t56 92t20 118.5v615h127v-1016h-129v139h-4q-51 -82 -133 -116.5t-164 -34.5q-72 0 -137 23.5t-115.5 67.5t-80 108.5t-29.5 148.5z" />
<glyph unicode="v" horiz-adv-x="907" d="M20 1014h142q43 -117 85 -241t83 -243q8 -23 25.5 -71.5t37 -103t36.5 -103.5t26 -72h6q29 82 59.5 175.5t57.5 174.5q41 119 82.5 242t82.5 242h144l-373 -1014h-119q-94 252 -188 507t-187 507z" />
<glyph unicode="w" horiz-adv-x="1456" d="M14 1014h142q10 -35 32.5 -112t47 -161t47 -160.5t32.5 -111.5l82 -276h6q23 68 44.5 137t41.5 135q12 35 37 111.5t52.5 162.5t52 163t35.5 112h122q12 -35 36 -112t51.5 -161t51 -160.5t36.5 -111.5l88 -285h8l82 289l155 541h144q-14 -43 -39 -122t-56.5 -178.5 t-66.5 -207t-65.5 -206.5t-56.5 -179t-38 -121h-127q-10 33 -33.5 104.5t-49 150.5t-48 150.5t-35.5 106.5q-27 78 -50 154.5t-50 156.5q-25 -78 -49.5 -156.5t-48.5 -154.5q-12 -33 -35 -104.5t-48.5 -151.5t-48 -151.5t-34.5 -104.5h-127q-12 41 -38 121t-56.5 179 t-65.5 206.5t-65.5 207t-56 178.5t-38.5 122z" />
<glyph unicode="x" horiz-adv-x="925" d="M45 0l342 520l-326 496h156l246 -408l246 408h155l-325 -498l342 -518h-156l-262 426l-262 -426h-156z" />
<glyph unicode="y" horiz-adv-x="878" d="M4 1014h143l166 -469l127 -375h6q20 61 55.5 164.5t76.5 220.5l157 459h135l-438 -1235q-41 -113 -107.5 -151t-144.5 -38h-67v115h65q47 0 85 27.5t61 101.5l55 170z" />
<glyph unicode="z" horiz-adv-x="876" d="M70 0v106l583 795h-553v115h705v-113l-580 -784h580v-119h-735z" />
<glyph unicode="{" horiz-adv-x="507" d="M45 565v80q43 8 72.5 36t47 66.5t26 87t8.5 97.5v276q0 98 49 157.5t127 59.5h117v-86h-76q-33 0 -53.5 -17t-32 -45t-15.5 -59.5t-4 -62.5v-266q0 -66 -15 -115t-37.5 -83t-47.5 -54.5t-45 -26.5v-4q20 -6 46 -26.5t48.5 -54t36.5 -82t14 -109.5v-281q0 -31 4 -63.5 t15.5 -60t32 -45t53.5 -17.5h76v-84h-117q-78 0 -128 58.5t-50 156.5v285q0 121 -33 193.5t-119 88.5z" />
<glyph unicode="|" horiz-adv-x="387" d="M145 -332v1798h103v-1798h-103z" />
<glyph unicode="}" horiz-adv-x="507" d="M39 -133h78q33 0 53 17.5t31.5 45t15.5 60.5t4 63v281q0 61 14.5 109.5t37 82t47 54t47.5 26.5v4q-20 6 -46 26.5t-47.5 54.5t-37 83t-15.5 115v266q0 31 -2 62.5t-12 59.5t-31.5 45t-58.5 17h-78v80h117q90 0 134 -59.5t44 -151.5v-276q0 -49 7 -97.5t25.5 -87t48 -66.5 t72.5 -36v-80q-86 -16 -118.5 -89t-32.5 -193v-285q0 -98 -49 -156.5t-127 -58.5h-121v84z" />
<glyph unicode="~" d="M80 537q102 158 246 157q43 0 89 -18.5t91 -40t88 -39.5t82 -18q47 0 84 27.5t76 78.5l84 -63q-53 -82 -110.5 -123t-135.5 -41q-39 0 -83 18.5t-90 40t-91 39.5t-84 18q-53 0 -87 -25.5t-73 -72.5z" />
<glyph unicode="&#xa2;" d="M131 506q0 127 32 219t84 154.5t121.5 96.5t147.5 44v217h76v-211q100 -6 171 -38t136 -89l-82 -94q-43 41 -101.5 68.5t-123.5 29.5v-797q68 2 125 31t100 70q4 -4 16.5 -17.5t26.5 -29t25.5 -28.5t15.5 -17q-59 -55 -138 -89t-171 -38v-224h-76v228q-78 8 -147.5 42 t-121.5 96.5t-84 155.5t-32 220zM260 506q0 -172 66.5 -270.5t189.5 -120.5v780q-123 -23 -189.5 -120t-66.5 -269z" />
<glyph unicode="&#xa3;" d="M80 0v104q78 102 126 227.5t50 278.5h-176v107h151q-10 47 -25.5 92t-30.5 88t-25.5 87t-10.5 91q0 70 23.5 134.5t71 114.5t115 80t157.5 30q70 0 125 -9.5t101 -31t86 -57.5t79 -89l-111 -78q-57 84 -128.5 115t-155.5 31q-35 0 -73 -12.5t-71.5 -41t-55 -73.5 t-21.5 -113q0 -43 10 -85t25.5 -85t30.5 -90t26 -98h315v-107h-305q-4 -127 -30.5 -249.5t-110.5 -239.5h669v-121h-831z" />
<glyph unicode="&#xa5;" d="M29 1425h137q14 -31 40.5 -87t57.5 -125.5t66 -144.5t65.5 -143.5t57 -125t41.5 -86.5h8q14 31 39.5 87t55.5 124.5t63.5 143.5t64.5 144.5t56.5 126t39.5 86.5h137q-14 -31 -39.5 -86t-58.5 -122.5t-66.5 -142.5t-66.5 -142.5t-58.5 -122.5t-39.5 -84h270v-90h-313 l-25 -53v-131h338v-91h-338v-360h-127v360h-334v91h334v131q-2 6 -10 26.5t-12 26.5h-312v90h267z" />
<glyph unicode="&#xa8;" horiz-adv-x="997" d="M236 1233v147h147v-147h-147zM614 1233v147h148v-147h-148z" />
<glyph unicode="&#xa9;" horiz-adv-x="1622" d="M111 698q0 154 54 286t149.5 228.5t224.5 150.5t278 54q150 0 280 -54t225 -150.5t149.5 -228.5t54.5 -286t-54.5 -284.5t-149.5 -227t-225 -150.5t-280 -54q-152 0 -281.5 54t-224 150.5t-147.5 227.5t-53 284zM215 698q0 -131 46 -243.5t127 -195.5t190.5 -131 t238.5 -48t239.5 48t190.5 131t126 195.5t46 243.5t-46 245t-126 198t-190.5 131t-239.5 47t-238.5 -47t-190.5 -131t-127 -198t-46 -245zM516 569v242q0 63 19.5 121.5t58.5 102.5t96.5 69.5t132.5 25.5q104 0 177 -49t108 -133l-96 -45q-25 55 -73 91t-114 36 q-53 0 -91 -18.5t-64.5 -49t-39 -71.5t-12.5 -84v-234q0 -43 12.5 -85t39 -73.5t64.5 -51t91 -19.5q68 0 115 38t72 99l98 -45q-35 -90 -108.5 -140t-178.5 -50q-78 0 -135 25.5t-96 70.5t-57.5 103.5t-18.5 123.5z" />
<glyph unicode="&#xab;" horiz-adv-x="886" d="M109 463l249 366h127l-245 -366l245 -369h-129zM424 463l250 366h125l-244 -366l244 -369h-125z" />
<glyph unicode="&#xad;" horiz-adv-x="780" d="M106 459v121h568v-121h-568z" />
<glyph unicode="&#xae;" horiz-adv-x="1132" d="M143 1008q0 92 33 170.5t90.5 136t134 90.5t166.5 33t168 -33t134.5 -90.5t89 -136t32.5 -170.5t-32.5 -170t-89 -134.5t-134.5 -89t-168 -32.5t-166.5 32.5t-134 89t-90.5 134t-33 170.5zM215 1008q0 -78 26.5 -144.5t73.5 -116t112 -77t140 -27.5q76 0 140.5 27.5 t111.5 77t75 116t28 144.5t-28 145.5t-75 116.5t-111.5 77.5t-140.5 28.5t-140.5 -28.5t-111.5 -77.5t-73.5 -117t-26.5 -145zM412 760v495h202q63 0 105.5 -36.5t42.5 -100.5q0 -49 -28.5 -85t-76.5 -50l117 -223h-80l-108 213h-105v-213h-69zM481 1038h121q39 0 64.5 20.5 t25.5 59.5q0 41 -25.5 58.5t-62.5 17.5h-123v-156z" />
<glyph unicode="&#xb4;" horiz-adv-x="997" d="M408 1174l153 339l135 -45l-204 -327z" />
<glyph unicode="&#xb8;" horiz-adv-x="866" d="M305 -377l25 66q41 -16 81 -22.5t68 -6.5q35 0 73 22.5t38 69.5q0 41 -40 69.5t-106 28.5q-4 0 -8 -1t-8 -1l-31 25q16 47 29.5 92t28.5 90q20 0 38.5 -2t36.5 -2l-43 -135q59 -4 97.5 -21.5t61 -41t31.5 -51t9 -50.5q0 -25 -10 -52.5t-34 -52t-61.5 -40t-93.5 -15.5 q-10 0 -29.5 1t-44 4.5t-53 9.5t-55.5 16z" />
<glyph unicode="&#xbb;" horiz-adv-x="886" d="M111 94l243 369l-243 366h125l251 -366l-249 -369h-127zM426 94l244 369l-244 366h125l250 -366l-250 -369h-125z" />
<glyph unicode="&#xc2;" horiz-adv-x="1212" d="M20 0q129 358 259.5 712.5t261.5 712.5h127l522 -1425h-148q-31 84 -60.5 168t-57.5 170h-639q-31 -86 -60.5 -170t-58.5 -168h-146zM279 1563l288 243h90l277 -239l-49 -62l-279 172l-280 -174zM324 457h559l-160 461l-117 329h-6q-16 -53 -51 -153.5t-74 -210.5 q-45 -123 -85 -239t-66 -187z" />
<glyph unicode="&#xc7;" horiz-adv-x="1097" d="M106 510v408q0 104 30 197t91.5 165t155.5 114t223 42q166 0 283 -78t172 -207l-129 -59q-39 94 -122 153.5t-202 59.5q-96 0 -165.5 -33t-113.5 -87.5t-64.5 -126t-20.5 -147.5v-395q0 -78 20.5 -149.5t63.5 -127t112.5 -89t167.5 -33.5q121 0 204 61.5t124 165.5 l129 -61q-53 -135 -168 -213t-279 -82l-22 -72q59 -4 97 -21.5t60.5 -41t32 -51t9.5 -50.5q0 -25 -10.5 -52.5t-34 -52t-61.5 -40t-93 -15.5q-10 0 -29.5 1t-44 4.5t-53.5 9.5t-55 16l24 66q41 -16 81 -22.5t69 -6.5q35 0 72.5 22.5t37.5 69.5q0 41 -40 69.5t-105 28.5 q-4 0 -8 -1t-8 -1l-31 25l37 119q-115 10 -197 55t-135 114.5t-79 160t-26 188.5z" />
<glyph unicode="&#xce;" horiz-adv-x="522" d="M-80 1565l289 243h94l275 -239l-50 -62l-278 172l-281 -174zM176 0v1425h139v-1425h-139z" />
<glyph unicode="&#xd6;" horiz-adv-x="1193" d="M98 510v408q0 104 31 197t93.5 165t155.5 114t220 42q129 0 222 -39t154.5 -108.5t91.5 -164t30 -206.5v-408q0 -121 -35 -217t-99.5 -164t-156.5 -104.5t-207 -36.5q-127 0 -221 42t-155.5 113.5t-92.5 167t-31 199.5zM236 514q0 -78 20 -149.5t64.5 -127t114 -89 t165.5 -33.5q88 0 153.5 30.5t110.5 84t67.5 128t22.5 160.5v395q0 82 -21.5 154t-66.5 124t-111.5 83t-154.5 31q-96 0 -164.5 -33t-112.5 -86t-65.5 -125t-21.5 -148v-399zM334 1567v143h147v-143h-147zM700 1567v143h148v-143h-148z" />
<glyph unicode="&#xdb;" horiz-adv-x="1253" d="M129 504v921h137v-903q0 -80 24.5 -153.5t71 -129t114 -88t153.5 -32.5q160 0 258 103.5t98 291.5v911h141v-929q0 -117 -35.5 -210t-102 -160t-159 -102.5t-202.5 -35.5q-119 0 -212 40t-156.5 109.5t-96.5 163.5t-33 203zM297 1565l289 243h92l276 -239l-49 -62 l-278 172l-283 -174z" />
<glyph unicode="&#xdc;" horiz-adv-x="1253" d="M129 504v921h137v-903q0 -80 24.5 -153.5t71 -129t114 -88t153.5 -32.5q160 0 258 103.5t98 291.5v911h141v-929q0 -117 -35.5 -210t-102 -160t-159 -102.5t-202.5 -35.5q-119 0 -212 40t-156.5 109.5t-96.5 163.5t-33 203zM373 1567v143h147v-143h-147zM739 1567v143 h148v-143h-148z" />
<glyph unicode="&#xe2;" horiz-adv-x="989" d="M82 283q0 59 20.5 112.5t61.5 93t101.5 62t142.5 22.5h346v132q0 98 -60.5 149t-204.5 51q-170 0 -262 -94l-82 88q59 63 147.5 95t194.5 32q80 0 152 -14.5t126 -50t86 -98t32 -158.5v-705h-129v98l-2 2q-39 -59 -123 -85.5t-189 -26.5q-160 0 -259 77.5t-99 217.5z M176 1194l289 285h92l274 -283l-61 -59l-266 206q-66 -53 -132.5 -104t-133.5 -104zM205 289q0 -88 65.5 -137.5t186.5 -49.5q49 0 101 8.5t96 32t72 62.5t28 100v162h-316q-111 0 -172 -45t-61 -133z" />
<glyph unicode="&#xe7;" horiz-adv-x="866" d="M59 506q0 141 39 240.5t102.5 161t146.5 90t169 28.5q94 0 173 -35t140 -92l-84 -94q-41 41 -99 69.5t-122 28.5q-160 0 -248 -99t-88 -298q0 -197 88.5 -298.5t247.5 -101.5q66 0 124.5 32t96.5 69l86 -92q-63 -57 -141 -92t-174 -35h-6l-23 -72q59 -4 97.5 -21.5 t61 -42t31.5 -51t9 -51.5t-10 -52.5t-34 -51t-61.5 -39t-93.5 -15.5h-29.5t-44 3.5t-53 9.5t-55.5 16l25 68q41 -16 81 -22.5t68 -6.5q39 0 75 24.5t36 65.5q0 47 -43 75t-115 23q-4 0 -17.5 11.5t-17.5 13.5l39 121q-76 10 -143.5 45t-119.5 96.5t-83 153.5t-31 217z" />
<glyph unicode="&#xee;" horiz-adv-x="575" d="M-41 1196l287 283h94l276 -281l-63 -61l-264 209l-269 -211zM219 0v1014h139v-1014h-139z" />
<glyph unicode="&#xf6;" horiz-adv-x="1028" d="M98 506q0 115 20.5 194.5t59.5 141.5q53 86 141 134t207 48q111 0 195 -43t135 -123q35 -53 55.5 -142t18.5 -216q-2 -121 -25.5 -205t-62.5 -141q-57 -86 -145.5 -126t-192.5 -40q-209 0 -314 135q-49 66 -70.5 159t-21.5 224zM227 504q0 -98 15.5 -165t44.5 -114 q35 -57 91 -89t132 -32q80 0 143.5 35t98.5 113q20 41 33.5 100.5t13.5 151.5q0 98 -11.5 158.5t-31.5 101.5q-74 145 -236 145q-78 0 -137 -34.5t-94 -94.5q-31 -49 -46.5 -113.5t-15.5 -162.5zM246 1233v147h147v-147h-147zM623 1233v147h147v-147h-147z" />
<glyph unicode="&#xfb;" horiz-adv-x="1054" d="M123 336v680h131v-629q0 -131 68.5 -203.5t197.5 -72.5q57 0 106.5 20.5t85.5 59t56 92t20 118.5v615h127v-1016h-129v139h-4q-51 -82 -133 -116.5t-164 -34.5q-72 0 -137 23.5t-115.5 67.5t-80 108.5t-29.5 148.5zM193 1196l286 283h94l277 -281l-64 -61l-266 209 l-266 -211z" />
<glyph unicode="&#xfc;" horiz-adv-x="1054" d="M123 336v680h131v-629q0 -131 68.5 -203.5t197.5 -72.5q57 0 106.5 20.5t85.5 59t56 92t20 118.5v615h127v-1016h-129v139h-4q-51 -82 -133 -116.5t-164 -34.5q-72 0 -137 23.5t-115.5 67.5t-80 108.5t-29.5 148.5zM244 1233v147h147v-147h-147zM621 1233v147h147v-147 h-147z" />
<glyph unicode="&#x11e;" horiz-adv-x="1212" d="M104 510v408q0 104 31 197t93.5 165t155.5 114t220 42q166 0 283 -78t170 -207q-2 -2 -21.5 -10t-42 -19.5t-42 -19.5t-21.5 -10q-41 94 -124 153.5t-200 59.5q-92 0 -160.5 -33t-113.5 -87.5t-67.5 -126t-22.5 -147.5v-403q0 -78 22.5 -149.5t67.5 -127t113.5 -89 t160.5 -33.5q80 0 145.5 30.5t113.5 82.5t74 119t26 140v137h-312v125h451v-254q0 -109 -36 -200.5t-100.5 -159.5t-157.5 -105.5t-206 -37.5q-129 0 -223 42t-155.5 114.5t-91.5 168t-30 199.5zM328 1741h116q6 -51 50.5 -95t113.5 -44q74 0 116 44t46 95h115 q-4 -39 -20.5 -82t-48.5 -79t-83 -59.5t-125 -23.5q-76 0 -128 23.5t-85 59.5t-49 79t-18 82z" />
<glyph unicode="&#x11f;" horiz-adv-x="1034" d="M96 492q-2 100 14.5 196t58.5 172t113.5 122t182.5 46q76 0 156.5 -31.5t140.5 -119.5h4v139h129l2 -1004q0 -115 -36 -196.5t-95 -134t-139 -77t-166 -24.5q-80 0 -157 30t-140 87l84 94q41 -35 98 -62.5t121 -27.5q127 0 212 73.5t87 215.5v160h-4q-55 -80 -127 -120 t-170 -40q-109 0 -179.5 43t-112.5 113.5t-58.5 160.5t-18.5 185zM229 508q0 -68 9.5 -137.5t39 -126t83 -92t141.5 -35.5q80 0 131 34.5t80.5 90t41 126t11.5 142.5q0 61 -9 130t-38 127t-80 97t-137 39q-90 0 -144.5 -38t-83 -96t-37 -128t-8.5 -133zM260 1405h115 q8 -55 53 -97t111 -42q72 0 113.5 40t49.5 99h113q-6 -39 -21.5 -82t-48 -80t-83 -60.5t-123.5 -23.5q-76 0 -128.5 23.5t-85 60.5t-48 80t-17.5 82z" />
<glyph unicode="&#x130;" horiz-adv-x="464" d="M156 1569v145h147v-145h-147zM162 0v1425h139v-1425h-139z" />
<glyph unicode="&#x131;" horiz-adv-x="401" d="M131 0v1014h139v-1014h-139z" />
<glyph unicode="&#x15e;" horiz-adv-x="1099" d="M23 162l88 112q90 -76 202.5 -115.5t237.5 -39.5q74 0 138.5 16.5t112.5 50t74.5 85t26.5 122.5q0 72 -30.5 119t-81 76.5t-114 47t-130.5 30.5q-82 14 -162 34.5t-142.5 60.5t-101.5 107.5t-39 175.5q0 94 35 167t96.5 124t145.5 78t182 27q260 0 434 -125l-77 -117 q-80 49 -169.5 78t-189.5 29q-139 0 -229 -64.5t-90 -196.5q0 -68 29.5 -109.5t81.5 -69t124 -45t156 -34.5q74 -16 148.5 -37.5t134 -63.5t96.5 -112.5t37 -181.5q0 -90 -34 -163.5t-96.5 -126t-151.5 -82t-198 -31.5l-22 -72q59 -4 97 -21.5t60.5 -41t31.5 -51t9 -50.5 q0 -25 -10 -52.5t-33.5 -52t-61.5 -40t-93 -15.5q-10 0 -29.5 1t-44.5 4.5t-53.5 9.5t-55.5 16l25 66q41 -16 81 -22.5t69 -6.5q35 0 72.5 22.5t37.5 69.5q0 41 -40 69.5t-105 28.5q-4 0 -8.5 -1t-8.5 -1l-30 25l37 117q-123 8 -247 50t-222 122z" />
<glyph unicode="&#x15f;" horiz-adv-x="925" d="M41 123l80 100q145 -121 344 -121q45 0 91 10.5t82 33t58.5 57.5t22.5 86q0 45 -20.5 75.5t-56.5 50t-83 30t-98 16.5q-63 8 -127 20.5t-115 40t-84 75.5t-33 128q0 70 29 126t78 95t116.5 59.5t145.5 20.5q113 0 196 -25.5t152 -76.5l-71 -103q-59 39 -126 62.5 t-149 23.5q-109 0 -175.5 -46t-68.5 -130q0 -43 20.5 -69.5t58.5 -44t90.5 -27.5t117.5 -19q57 -6 116.5 -22.5t107.5 -48t79 -82.5t31 -129q0 -129 -100.5 -213t-276.5 -88l-22 -72q59 -4 97 -21.5t60.5 -41t31.5 -51t9 -50.5q0 -25 -10 -52.5t-33.5 -52t-61.5 -40 t-93 -15.5q-10 0 -30 1t-44.5 4.5t-53 9.5t-55.5 16l25 66q41 -16 81 -22.5t68 -6.5q35 0 73 22.5t38 69.5q0 41 -40 69.5t-105 28.5q-4 0 -8.5 -1t-8.5 -1l-31 25l37 117q-98 8 -189 39.5t-167 93.5z" />
<glyph unicode="&#x2c6;" horiz-adv-x="997" d="M176 1196l291 283h92l275 -281l-62 -61l-266 209l-266 -211z" />
<glyph unicode="&#x2da;" horiz-adv-x="989" d="M350 1319q0 39 15.5 75t41 61.5t60.5 40.5t76 15q39 0 74.5 -15t62.5 -40.5t42 -61.5t15 -75q0 -41 -15 -76t-42 -61.5t-62.5 -42t-74.5 -15.5q-41 0 -76 15.5t-60.5 42t-41 61.5t-15.5 76zM424 1319q0 -51 34 -86t85 -35q53 0 87 35t34 86q0 49 -34 84t-87 35 q-51 0 -85 -35t-34 -84z" />
<glyph unicode="&#x2dc;" horiz-adv-x="997" d="M168 1247q41 76 94.5 117t110.5 41q35 0 70.5 -14.5t70.5 -32t66.5 -31.5t58.5 -14q31 0 61.5 20.5t61.5 67.5l82 -47q-41 -84 -90 -122t-107 -38q-35 0 -69.5 13.5t-69.5 30.5t-68.5 30.5t-62.5 13.5q-37 0 -66.5 -18.5t-64.5 -61.5z" />
<glyph unicode="&#x2000;" horiz-adv-x="904" />
<glyph unicode="&#x2001;" horiz-adv-x="1808" />
<glyph unicode="&#x2002;" horiz-adv-x="904" />
<glyph unicode="&#x2003;" horiz-adv-x="1808" />
<glyph unicode="&#x2004;" horiz-adv-x="602" />
<glyph unicode="&#x2005;" horiz-adv-x="452" />
<glyph unicode="&#x2006;" horiz-adv-x="301" />
<glyph unicode="&#x2007;" horiz-adv-x="301" />
<glyph unicode="&#x2008;" horiz-adv-x="226" />
<glyph unicode="&#x2009;" horiz-adv-x="361" />
<glyph unicode="&#x200a;" horiz-adv-x="100" />
<glyph unicode="&#x2010;" horiz-adv-x="780" d="M106 459v121h568v-121h-568z" />
<glyph unicode="&#x2011;" horiz-adv-x="780" d="M106 459v121h568v-121h-568z" />
<glyph unicode="&#x2012;" horiz-adv-x="780" d="M106 459v121h568v-121h-568z" />
<glyph unicode="&#x2013;" horiz-adv-x="1017" d="M41 483v125h936v-125h-936z" />
<glyph unicode="&#x2014;" horiz-adv-x="2041" d="M41 483v125h1960v-125h-1960z" />
<glyph unicode="&#x2018;" horiz-adv-x="419" d="M123 1092v180q27 53 50.5 108.5t49.5 110.5h82l-59 -219h45v-180h-168z" />
<glyph unicode="&#x2019;" horiz-adv-x="419" d="M123 1092l59 219h-45v180h168v-180q-27 -53 -51.5 -108.5t-48.5 -110.5h-82z" />
<glyph unicode="&#x201a;" horiz-adv-x="436" d="M127 -219l59 219h-45v182h154v-180l-100 -221h-68z" />
<glyph unicode="&#x201c;" horiz-adv-x="571" d="M70 1092v180l98 219h82l-60 -219h46v-180h-166zM317 1092v180q27 53 50.5 108.5t50.5 110.5h82l-60 -219h45v-180h-168z" />
<glyph unicode="&#x201d;" horiz-adv-x="571" d="M88 1092l59 217h-45v182h166v-182q-25 -53 -49 -108.5t-51 -108.5h-80zM336 1092l59 217h-45v182h168v-182q-27 -53 -50.5 -108.5t-49.5 -108.5h-82z" />
<glyph unicode="&#x201e;" horiz-adv-x="831" d="M141 -219l60 219h-45v182h151v-180l-98 -221h-68zM512 -221l59 217h-45v182h154v-180l-100 -219h-68z" />
<glyph unicode="&#x2026;" horiz-adv-x="1417" d="M147 0v180h166v-180h-166zM616 0v180h168v-180h-168zM1096 0v180h168v-180h-168z" />
<glyph unicode="&#x202f;" horiz-adv-x="361" />
<glyph unicode="&#x2039;" horiz-adv-x="589" d="M111 463l251 366h125l-241 -366l241 -369h-131z" />
<glyph unicode="&#x203a;" horiz-adv-x="589" d="M111 94l241 369l-241 366h125l251 -366l-249 -369h-127z" />
<glyph unicode="&#x205f;" horiz-adv-x="452" />
<glyph unicode="&#x20ac;" d="M29 559v92h86v125h-86v92h86v62q0 104 27.5 195.5t84 161t140.5 109.5t196 40q147 0 254 -73t160 -198l-127 -53q-41 92 -112.5 146.5t-172.5 54.5q-86 0 -146.5 -33t-97 -87t-54 -125t-17.5 -144v-56h465v-92h-465v-125h467v-92h-467v-70q0 -74 18.5 -142t57.5 -121.5 t98 -86.5t141 -33q55 0 98.5 15.5t79 44.5t64.5 67.5t55 88.5l117 -56q-61 -133 -164.5 -205.5t-251.5 -72.5q-115 0 -198.5 40t-139 109.5t-83 163.5t-27.5 201v57h-86z" />
<glyph unicode="&#x2122;" horiz-adv-x="1689" d="M78 1329v96h602v-96h-250v-711h-100v711h-252zM803 616v807h98l281 -551q8 16 29.5 59.5t49 98.5t59.5 117.5t59.5 118t49 98.5l29.5 59h94v-807h-98l-2 574l-233 -455h-82l-236 455v-574h-98z" />
<glyph unicode="&#x25fc;" horiz-adv-x="1013" d="M0 0v1014h1014v-1014h-1014z" />
</font>
</defs>
</svg>
