<?xml version="1.0" standalone="no"?>
<!DOCTYPE svg PUBLIC "-//W3C//DTD SVG 1.1//EN" "http://www.w3.org/Graphics/SVG/1.1/DTD/svg11.dtd" >
<svg xmlns="http://www.w3.org/2000/svg">
<metadata></metadata>
<defs>
<font id="pf_dintext_probold" horiz-adv-x="1126" >
<font-face units-per-em="2048" ascent="1536" descent="-512" />
<missing-glyph horiz-adv-x="573" />
<glyph horiz-adv-x="0" />
<glyph horiz-adv-x="682" />
<glyph unicode=" "  horiz-adv-x="573" />
<glyph unicode="&#x09;" horiz-adv-x="573" />
<glyph unicode="&#xa0;" horiz-adv-x="573" />
<glyph unicode="!" horiz-adv-x="602" d="M152 0v262h301v-262h-301zM154 1425h295l-21 -1034h-252z" />
<glyph unicode="&#x22;" horiz-adv-x="837" d="M111 961v464h251v-464h-251zM457 961v464h254v-464h-254z" />
<glyph unicode="#" horiz-adv-x="1212" d="M47 416v200h207l29 195h-179v203h209l62 411h241l-59 -411h174l62 411h241l-59 -411h186v-203h-215l-31 -195h189v-200h-217l-60 -416h-247l61 416h-170l-61 -416h-250l61 416h-174zM498 616h174l30 195h-174z" />
<glyph unicode="$" d="M35 207l176 225q80 -66 148.5 -100.5t146.5 -42.5v282q-78 29 -150.5 65t-131 87t-93.5 118.5t-35 159.5q0 88 29 163t83 131.5t130 91t168 45.5v137h112v-135q115 -4 218.5 -40t214.5 -112l-156 -260q-86 55 -148.5 84t-128.5 35v-269q111 -37 199 -78.5t148.5 -96 t93.5 -122t33 -153.5q0 -100 -36 -178t-99.5 -132.5t-150.5 -85t-188 -34.5v-209h-112v211q-127 8 -240.5 56t-230.5 157zM414 1026q0 -35 25.5 -60.5t66.5 -47.5v217q-41 -10 -66.5 -36t-25.5 -73zM618 291q63 10 91 38.5t28 67.5q0 53 -30.5 85t-88.5 55v-246z" />
<glyph unicode="%" horiz-adv-x="1894" d="M152 827v340q0 63 25.5 112.5t68.5 83.5t97 51.5t112 17.5q59 0 114.5 -17.5t98.5 -51.5t68.5 -83t25.5 -113v-340q0 -61 -25.5 -110t-68.5 -83t-98.5 -51.5t-114.5 -17.5q-57 0 -111.5 17.5t-97.5 51.5t-68.5 83t-25.5 110zM377 829q0 -37 21.5 -55t56.5 -18t57.5 18.5 t22.5 54.5v338q0 39 -23 57.5t-57 18.5q-35 0 -56.5 -18.5t-21.5 -57.5v-338zM391 -35l871 1495h241l-872 -1495h-240zM1130 256v340q0 63 26 112.5t69 83t97 51t112 17.5q59 0 114.5 -17.5t98.5 -51t68.5 -83t25.5 -112.5v-340q0 -61 -25.5 -110.5t-68.5 -83t-98.5 -51 t-114.5 -17.5q-57 0 -111.5 17.5t-97.5 51t-69 83t-26 110.5zM1356 258q0 -37 21.5 -55.5t56.5 -18.5t57 18.5t22 55.5v338q0 39 -22.5 57.5t-56.5 18.5q-35 0 -56.5 -18.5t-21.5 -57.5v-338z" />
<glyph unicode="&#x26;" horiz-adv-x="1355" d="M133 373q0 127 57.5 228t182.5 194l-27 32q-39 47 -66.5 108.5t-27.5 143.5q0 160 95 258.5t296 98.5q88 0 193.5 -28t205.5 -114l-157 -217q-78 66 -134.5 83.5t-109.5 17.5q-51 0 -84 -28t-33 -69q0 -35 11.5 -57.5t39.5 -60.5l324 -426q16 39 29.5 90t21.5 104 l258 -67q-16 -92 -51 -187.5t-82 -167.5l248 -309h-338l-88 117q-74 -61 -159 -95t-179 -34q-111 0 -191.5 31.5t-133 85t-77 123t-24.5 145.5zM401 383q0 -57 41 -96t121 -39q49 0 94 20.5t82 48.5l-213 275q-55 -41 -90 -95.5t-35 -113.5z" />
<glyph unicode="'" horiz-adv-x="532" d="M139 961v464h252v-464h-252z" />
<glyph unicode="(" horiz-adv-x="763" d="M129 625q0 131 33 253.5t89 237.5t131 219.5t161 196.5l176 -113q-145 -193 -213 -398.5t-68 -385.5q0 -197 73 -404.5t210 -392.5l-170 -129q-86 94 -163 200.5t-134 223.5t-91 241t-34 251z" />
<glyph unicode=")" horiz-adv-x="763" d="M106 -162q139 184 211 392t72 405q0 180 -66.5 386t-213.5 398l176 113q86 -92 161.5 -196.5t131 -219.5t88 -237.5t32.5 -253.5q0 -127 -32.5 -251t-90 -241t-134 -223.5t-162.5 -200.5z" />
<glyph unicode="*" horiz-adv-x="950" d="M104 1063l66 209l227 -94l-26 243h231l-29 -243l226 94l65 -209l-237 -53l164 -183l-187 -133l-121 211l-129 -211l-184 133l168 183z" />
<glyph unicode="+" d="M39 492v237h397v375h254v-375h397v-237h-397v-381h-254v381h-397z" />
<glyph unicode="," horiz-adv-x="612" d="M129 -309l78 307h-74v340h346v-324l-200 -323h-150z" />
<glyph unicode="-" horiz-adv-x="901" d="M96 393v269h709v-269h-709z" />
<glyph unicode="." horiz-adv-x="608" d="M131 0v338h346v-338h-346z" />
<glyph unicode="/" horiz-adv-x="753" d="M-33 -86l518 1571h246l-520 -1571h-244z" />
<glyph unicode="0" d="M131 418v588q0 102 38 182t100.5 135t144.5 84t168 29q88 0 170 -29t145.5 -84t101 -135t37.5 -182v-588q0 -102 -37.5 -182t-101 -134.5t-145.5 -83t-170 -28.5q-86 0 -168 28.5t-144.5 83t-100.5 134t-38 182.5zM432 420q0 -80 41 -119t109 -39t109.5 39t41.5 119v586 q0 80 -42 118.5t-109 38.5q-68 0 -109 -39t-41 -118v-586z" />
<glyph unicode="1" d="M305 940v315l246 170h268v-1425h-301v1087z" />
<glyph unicode="2" d="M106 0v252l570 653q39 45 39 103q0 55 -38 100t-110 45q-59 0 -104 -42t-57 -140l-295 49q10 96 50 173t101.5 131t138 83t160.5 29q98 0 182 -25t145.5 -76t96.5 -126.5t35 -178.5q0 -78 -26.5 -153.5t-73.5 -131.5l-406 -462h504v-283h-912z" />
<glyph unicode="3" d="M92 365l291 41q12 -70 60.5 -102t111.5 -32q66 0 116 43t50 123q0 78 -46 128t-145 50h-122v236h127q98 0 139 47t41 107q0 63 -47 105t-113 42q-47 0 -94 -31.5t-62 -117.5l-288 51q18 92 62 162.5t105.5 118.5t135 74t153.5 26q121 0 210 -34t146.5 -90.5t85 -131 t27.5 -156.5q0 -35 -13 -78t-37.5 -83t-59.5 -74.5t-80 -53.5q51 -23 89 -57.5t62.5 -75.5t35.5 -85t11 -83q0 -98 -34.5 -180t-97 -140.5t-151.5 -91t-198 -32.5q-76 0 -150.5 20.5t-139 65.5t-112.5 115.5t-69 173.5z" />
<glyph unicode="4" d="M57 199v235l494 991h336l-481 -954h258v373h301v-373h114v-272h-114v-199h-301v199h-607z" />
<glyph unicode="5" d="M121 362l297 56q12 -86 55 -116t102 -30q51 0 83 22.5t49.5 57.5t23.5 77t6 83q0 43 -7 83t-25.5 70.5t-50 48t-79.5 17.5q-35 0 -77.5 -26.5t-71.5 -92.5h-274v813h847v-276h-559v-221q41 35 103.5 52t111.5 17q109 0 182.5 -33.5t118.5 -94t66.5 -143.5t26.5 -181 q0 -129 -29 -231.5t-87.5 -174t-145.5 -110.5t-203 -39q-72 0 -145.5 16.5t-138 57t-113 113.5t-66.5 185z" />
<glyph unicode="6" d="M123 440q0 66 14.5 127.5t42.5 116.5l395 741h338l-297 -559l2 -4q98 10 177 -16.5t134.5 -80.5t84 -133t28.5 -171q0 -125 -40.5 -214t-108.5 -146.5t-153 -84t-173 -26.5q-84 0 -163.5 29.5t-142 87t-100.5 141.5t-38 192zM424 444q0 -92 42 -132t112 -40q27 0 54 9.5 t50 31t37 53t14 78.5q0 92 -46 133t-109 41q-61 0 -107.5 -40.5t-46.5 -133.5z" />
<glyph unicode="7" d="M109 950v475h907v-251l-512 -1174h-318l482 1143h-258v-193h-301z" />
<glyph unicode="8" d="M102 428q0 43 10.5 89t34 87t59.5 76t85 53v10q-41 16 -72 46t-50 67t-28.5 78t-9.5 82q0 90 34 167t94 133t143 88t182 32q115 0 199.5 -32t142 -88t85 -133t27.5 -167q0 -82 -38.5 -157t-125.5 -116v-8q49 -18 85 -52t59.5 -76t35 -89t11.5 -90q0 -98 -39 -179 t-104.5 -138.5t-152.5 -89t-185 -31.5t-185.5 31.5t-153 89t-104.5 138.5t-39 179zM403 438q0 -72 49.5 -123t131.5 -51q84 0 132 51t48 123q0 70 -53.5 117t-126.5 47q-37 0 -70 -12t-57.5 -35t-39 -52.5t-14.5 -64.5zM430 1008q0 -72 46 -108t108 -36q61 0 108 39t47 105 q0 68 -41 113.5t-114 45.5q-72 0 -113 -44t-41 -115z" />
<glyph unicode="9" d="M123 965q0 125 41 214t107.5 146t151.5 84t173 27q84 0 165 -30t143.5 -87t100 -141t37.5 -193q0 -66 -14 -127t-45 -117l-395 -741h-338l297 559l-2 4q-98 -10 -177 16.5t-133.5 81t-83 133.5t-28.5 171zM426 981q0 -92 45 -133t109 -41q61 0 108 41t47 133t-43 132 t-112 40q-25 0 -52.5 -9t-50 -30.5t-37 -54.5t-14.5 -78z" />
<glyph unicode=":" horiz-adv-x="620" d="M137 0v338h346v-338h-346zM137 549v338h346v-338h-346z" />
<glyph unicode=";" horiz-adv-x="620" d="M133 -309l78 307h-74v340h346v-324l-200 -323h-150zM137 549v338h346v-338h-346z" />
<glyph unicode="&#x3c;" d="M37 496v229l1046 457v-269l-723 -305l723 -305v-268z" />
<glyph unicode="=" d="M37 262v227h1053v-227h-1053zM37 731v227h1053v-227h-1053z" />
<glyph unicode="&#x3e;" d="M39 35v268l723 305l-723 305v269l1046 -457v-229z" />
<glyph unicode="?" horiz-adv-x="1069" d="M68 1006q10 102 53 182t108.5 135t146.5 84t165 29q106 0 189 -31t141.5 -85t89 -129t30.5 -161q0 -66 -22.5 -117t-56 -96t-73.5 -87t-74 -85t-56.5 -92t-22.5 -111v-45h-301v56q0 59 10.5 107t33 95t57 98.5t85.5 116.5q27 33 57.5 76t30.5 86q0 55 -42 88t-95 33 q-68 0 -109.5 -42t-45.5 -140zM385 0v262h301v-262h-301z" />
<glyph unicode="@" horiz-adv-x="1884" d="M129 680q0 174 64.5 324.5t177 259t266.5 171t334 62.5q170 0 312 -50t244.5 -142.5t159 -223.5t56.5 -293q0 -98 -19.5 -195t-66.5 -173t-125 -123t-195 -47q-29 0 -63.5 8t-68.5 24.5t-62.5 41t-42.5 59.5h-8q-27 -47 -89.5 -88t-142.5 -41q-61 0 -114.5 15.5t-94.5 46 t-64.5 78.5t-23.5 116q0 53 20.5 100t58.5 83t94.5 56.5t129.5 20.5h189v27q0 14 -3 31.5t-17.5 34t-43 27.5t-78.5 11q-70 0 -106.5 -14.5t-81.5 -50.5l-115 153q78 68 158 93.5t172 25.5q66 0 128 -13.5t110.5 -47t77 -89t28.5 -137.5l-2 -293q0 -12 3 -26.5t12.5 -27.5 t25.5 -22.5t41 -9.5q55 0 90 29t54.5 77t25.5 109.5t6 126.5q0 123 -44 222.5t-122 169t-182.5 107.5t-224.5 38q-139 0 -255 -51t-200 -138.5t-131 -205t-47 -250.5q0 -139 50 -253t138 -196t208 -127t261 -45q76 0 140.5 7.5t121 21.5t109.5 33.5t106 44.5l66 -178 q-68 -27 -131.5 -48.5t-127 -36t-131 -21.5t-143.5 -7q-184 0 -343.5 54.5t-277.5 157.5t-184.5 253.5t-66.5 343.5zM795 530q0 -8 4 -21t16 -25.5t34.5 -21.5t59.5 -9q57 0 101.5 27.5t44.5 86.5v27h-158q-33 0 -52.5 -6t-30.5 -15.5t-15 -20.5t-4 -22z" />
<glyph unicode="A" horiz-adv-x="1351" d="M-4 0l553 1425h248l553 -1425h-332l-107 291h-477l-106 -291h-332zM532 557h281l-53 164l-84 283h-8l-82 -279z" />
<glyph unicode="B" horiz-adv-x="1304" d="M143 0v1425h600q113 0 201 -29.5t148.5 -82.5t91 -128t30.5 -163q0 -78 -40.5 -156t-137.5 -123v-8q49 -18 86 -53t62.5 -78t39 -90t13.5 -90q0 -96 -36 -174t-96.5 -133.5t-141 -86t-170.5 -30.5h-650zM459 283h268q100 0 143 47t43 108q0 31 -10 59.5t-32.5 51 t-58.5 36t-85 13.5h-268v-315zM459 858h241q98 0 139.5 45.5t41.5 104.5t-41 97t-140 38h-241v-285z" />
<glyph unicode="C" horiz-adv-x="1228" d="M92 545v336q0 111 34 211t102.5 177t172 122t242.5 45q205 0 341 -99.5t190 -263.5l-300 -106q-16 74 -75.5 124t-157.5 50q-59 0 -102 -19.5t-72 -52.5t-43 -75t-14 -85v-387q0 -47 14 -90t43 -75.5t72 -53t102 -20.5q96 0 156.5 50t76.5 128l300 -115 q-53 -168 -191.5 -263t-339.5 -95q-139 0 -242.5 41t-172 114.5t-102.5 176t-34 225.5z" />
<glyph unicode="D" horiz-adv-x="1345" d="M143 0v1425h568q160 0 288.5 -61t196.5 -203q39 -78 47 -184.5t8 -239.5q0 -150 -8 -260t-43 -194q-35 -80 -89 -134.5t-121.5 -87t-147.5 -47t-166 -14.5h-533zM459 283h207q80 0 132 21.5t82.5 61.5t44 96t13.5 126v260q0 147 -64.5 220t-214.5 73h-200v-858z" />
<glyph unicode="E" horiz-adv-x="1198" d="M143 0v1425h1008v-282h-692v-289h590v-272h-590v-299h692v-283h-1008z" />
<glyph unicode="F" horiz-adv-x="1159" d="M143 0v1425h1008v-282h-692v-301h590v-273h-590v-569h-316z" />
<glyph unicode="G" horiz-adv-x="1304" d="M100 545v336q0 111 34 211t102.5 177t172 122t242.5 45q205 0 341 -99.5t190 -263.5l-299 -106q-16 74 -75.5 124t-158.5 50q-59 0 -102 -19.5t-72 -52.5t-43 -75t-14 -85v-387q0 -47 14 -90t43 -76.5t73 -54t103 -20.5q51 0 95.5 19t78 52t53 76t19.5 92v10h-291v263 h602v-285q0 -113 -44 -208t-119.5 -164.5t-177 -108.5t-216.5 -39q-139 0 -242.5 41t-172 114.5t-102.5 176t-34 225.5z" />
<glyph unicode="H" horiz-adv-x="1380" d="M143 0v1425h316v-571h467v571h311v-1425h-311v582h-467v-582h-316z" />
<glyph unicode="I" horiz-adv-x="602" d="M150 0v1425h315v-1425h-315z" />
<glyph unicode="J" horiz-adv-x="1046" d="M6 180l211 207q53 -59 106.5 -85t96.5 -26q27 0 59.5 7.5t61 29t47 60.5t18.5 102v950h312v-964q0 -135 -40 -226.5t-105.5 -145.5t-153 -76.5t-181.5 -22.5q-63 0 -122.5 8t-115 29.5t-104.5 58.5t-90 94z" />
<glyph unicode="K" horiz-adv-x="1345" d="M143 0v1425h316v-610l4 -4l217 264l297 350h381l-500 -577l528 -848h-372l-369 606l-186 -209v-397h-316z" />
<glyph unicode="L" horiz-adv-x="1198" d="M143 0v1425h316v-1142h692v-283h-1008z" />
<glyph unicode="M" horiz-adv-x="1601" d="M143 0v1425h285l193 -413l184 -428h8l178 428l189 413h297v-1425h-314v678l-6 2l-129 -289l-96 -201h-242l-100 211l-125 279l-6 -6v-674h-316z" />
<glyph unicode="N" horiz-adv-x="1454" d="M143 0v1425h281l299 -436l274 -428l4 2v862h316v-1425h-281l-362 524l-211 340l-4 -2v-862h-316z" />
<glyph unicode="O" horiz-adv-x="1277" d="M84 545v336q0 111 34 211t102.5 177t172 122t242.5 45q129 0 232.5 -42t176 -116t111.5 -176.5t39 -220.5v-336q0 -127 -40 -230.5t-112.5 -176t-176 -111.5t-230.5 -39q-139 0 -242.5 45t-172 121.5t-102.5 178t-34 212.5zM401 522q0 -47 14.5 -90t43 -75.5t71.5 -53 t103 -20.5q115 0 177 68.5t62 170.5v387q0 94 -62 163t-177 69q-59 0 -102.5 -19.5t-72 -52.5t-43 -75t-14.5 -85v-387z" />
<glyph unicode="P" horiz-adv-x="1247" d="M143 0v1425h588q113 0 205 -31.5t157.5 -91t101.5 -144.5t36 -191q0 -96 -39 -178t-105.5 -141.5t-156.5 -93.5t-193 -34h-278v-520h-316zM459 803h264q78 0 133 46t55 124q0 86 -51 128t-145 42h-256v-340z" />
<glyph unicode="Q" horiz-adv-x="1304" d="M98 545v336q0 111 34 211t102.5 177t172 122t242.5 45q129 0 232.5 -42t176 -116t111.5 -176.5t39 -220.5v-336q0 -150 -57 -271l166 -133l-172 -194l-166 129q-139 -88 -330 -88q-139 0 -242.5 45t-172 121.5t-102.5 178t-34 212.5zM416 522q0 -47 14 -90t43 -75.5 t72 -53t102 -20.5q31 0 62 6l-144 112l172 207l148 -119q0 8 1 15.5t1 17.5v387q0 94 -62.5 163t-177.5 69q-59 0 -102 -19.5t-72 -52.5t-43 -75t-14 -85v-387z" />
<glyph unicode="R" horiz-adv-x="1335" d="M143 0v1425h631q94 0 177 -28.5t146.5 -82.5t100.5 -134t37 -183q0 -129 -66.5 -232t-195.5 -159l272 -606h-356l-225 551h-205v-551h-316zM459 834h260q86 0 137 40.5t51 120.5t-49 115t-129 35h-270v-311z" />
<glyph unicode="S" horiz-adv-x="1216" d="M16 184l183 242q100 -90 202.5 -120t212.5 -30q104 0 159.5 42t55.5 100q0 27 -6 51.5t-26.5 46t-59.5 36.5t-102 21q-102 10 -196.5 33t-168 71t-117.5 125t-44 197q0 113 44 196t114.5 137t158.5 80t176 26q131 0 260 -29t244 -104l-145 -252q-51 33 -101.5 51 t-96.5 28.5t-85 13.5t-68 3q-59 0 -95 -12.5t-57.5 -33t-28.5 -44t-7 -43.5q0 -35 13.5 -57.5t47 -39t92 -28.5t146.5 -27q88 -14 168 -41.5t140.5 -77t96 -124t35.5 -183.5q0 -111 -49 -195.5t-128 -141t-180.5 -85t-205.5 -28.5q-72 0 -145.5 7t-147.5 28.5t-146.5 60.5 t-142.5 100z" />
<glyph unicode="T" horiz-adv-x="1138" d="M16 1143v282h1092v-282h-389v-1143h-313v1143h-390z" />
<glyph unicode="U" horiz-adv-x="1345" d="M119 516v909h313v-886q0 -123 70.5 -189.5t171.5 -66.5q104 0 171.5 59t67.5 178v905h316v-927q0 -115 -44 -208t-119 -160t-176.5 -103.5t-215.5 -36.5q-115 0 -216.5 38t-177 106.5t-118.5 165.5t-43 216z" />
<glyph unicode="V" horiz-adv-x="1243" d="M-2 1425h332l182 -577l106 -363h11l100 357l180 583h330l-491 -1425h-256z" />
<glyph unicode="W" horiz-adv-x="1748" d="M2 1421h330l100 -422l90 -405h6l109 405l123 422h229l123 -420l109 -407h10l86 405l100 422h330l-381 -1425h-254l-133 463l-100 389h-7l-102 -395l-131 -457h-256z" />
<glyph unicode="X" horiz-adv-x="1288" d="M0 0l483 729l-456 696h358l254 -428l256 428h358l-456 -696l485 -729h-358l-285 463l-283 -463h-356z" />
<glyph unicode="Y" horiz-adv-x="1239" d="M14 1425h338l146 -307l123 -276h8l121 274l147 309h338l-461 -841v-584h-301v584z" />
<glyph unicode="Z" horiz-adv-x="1124" d="M57 0v268l627 877h-600v280h981v-260l-625 -876h625v-289h-1008z" />
<glyph unicode="[" horiz-adv-x="643" d="M137 -195v1627h469v-218h-190v-1194h190v-215h-469z" />
<glyph unicode="\" horiz-adv-x="753" d="M-31 1485h246l518 -1571h-244z" />
<glyph unicode="]" horiz-adv-x="643" d="M37 20h188v1194h-188v218h467v-1627h-467v215z" />
<glyph unicode="^" d="M49 481l397 942h230l391 -938h-266l-242 615l-244 -619h-266z" />
<glyph unicode="_" horiz-adv-x="1024" d="M0 -141h1024v-187h-1024v187z" />
<glyph unicode="`" horiz-adv-x="1056" d="M227 1481l275 94l190 -397l-166 -78z" />
<glyph unicode="a" horiz-adv-x="1056" d="M72 301q0 63 24.5 120.5t70.5 100.5t114.5 67.5t156.5 24.5h230v33q0 16 -5.5 38t-22.5 40t-51 31.5t-91 13.5q-70 0 -129.5 -17.5t-110.5 -62.5l-141 199q92 84 197.5 109.5t213.5 25.5q88 0 167 -16.5t137.5 -56.5t92 -106.5t33.5 -166.5v-678h-290v94l-6 2 q-27 -31 -60 -51t-66.5 -32.5t-66.5 -17.5t-57 -5q-74 0 -136.5 18.5t-107.5 56t-70.5 96t-25.5 140.5zM352 326q0 -10 5 -25.5t19.5 -31t42 -27t73.5 -11.5q68 0 122 33t54 105v32h-193q-39 0 -63.5 -7t-38 -18t-17.5 -24.5t-4 -25.5z" />
<glyph unicode="b" horiz-adv-x="1091" d="M119 0v1489h293v-557l4 -2q18 20 44.5 37.5t57.5 30t62.5 19.5t56.5 7q121 0 193.5 -48t111.5 -122t51.5 -161t12.5 -165q0 -82 -11.5 -176t-50.5 -175t-111.5 -134t-195.5 -53q-53 0 -115.5 23.5t-105.5 70.5l-4 -4v-80h-293zM412 508q0 -37 3 -80t17 -81t44 -62.5 t81 -24.5q53 0 84 23.5t45 60.5t17.5 81t3.5 83q0 41 -3.5 84t-18.5 79t-45 59.5t-83 23.5q-51 0 -79.5 -23.5t-43 -60.5t-18.5 -80t-4 -82z" />
<glyph unicode="c" horiz-adv-x="948" d="M57 506q0 137 40 234.5t107.5 161t156 93t182.5 29.5q104 0 192 -35t166 -112l-188 -199q-47 45 -89 64.5t-81 19.5q-88 0 -134.5 -59.5t-46.5 -196.5q0 -135 41 -193.5t134 -58.5q41 0 86 19.5t94 66.5l192 -197q-84 -76 -181 -115.5t-202 -39.5q-94 0 -179 29.5 t-149.5 93t-102.5 162t-38 233.5z" />
<glyph unicode="d" horiz-adv-x="1091" d="M100 528q0 76 16.5 163t58.5 162t114.5 124t187.5 49q59 0 116.5 -23.5t98.5 -70.5l4 2v553h293v-1487h-293v80l-4 4q-45 -47 -106.5 -70.5t-116.5 -23.5q-131 0 -205 53t-110.5 134t-45 175t-8.5 176zM399 481q0 -37 5.5 -76.5t20.5 -71.5t45 -52.5t79 -20.5 q51 0 80.5 24.5t44 62.5t18.5 81t4 80q0 39 -4 82t-18.5 80t-43 60.5t-79.5 23.5q-55 0 -86 -27t-45 -68t-17.5 -89t-3.5 -89z" />
<glyph unicode="e" horiz-adv-x="1091" d="M72 504q0 143 40 242.5t105.5 161t148.5 89t169 27.5q121 0 208.5 -39t145 -107.5t85 -165t27.5 -210.5v-72h-626q10 -98 53 -138t117 -40q39 0 102.5 18.5t126.5 75.5l180 -201q-98 -90 -208.5 -123.5t-208.5 -33.5q-84 0 -167 23.5t-149.5 82t-107.5 157.5t-41 253z M385 618h301q-8 70 -51 108t-98 38t-98.5 -39t-53.5 -107z" />
<glyph unicode="f" horiz-adv-x="665" d="M41 786v228h115v176q0 76 24.5 132t66.5 93t99 54.5t123 17.5h176v-246h-119q-80 0 -80 -84v-143h199v-228h-199v-786h-290v786h-115z" />
<glyph unicode="g" horiz-adv-x="1091" d="M82 483q0 82 11 176.5t51 175t115 134t204 53.5q57 0 110.5 -16.5t100.5 -65.5l4 2v72h293v-987q0 -121 -40 -207t-105.5 -140.5t-151.5 -79t-178 -24.5t-188.5 26.5t-188.5 104.5l143 203q61 -41 126 -56.5t106 -15.5q76 0 131 42t55 122v80l-4 2q-18 -23 -44 -40 t-54.5 -29.5t-58.5 -19.5t-54 -7q-127 0 -203 48t-116 121.5t-52 161t-12 164.5zM381 504q0 -41 4 -84t19.5 -79t45 -59.5t82.5 -23.5q51 0 80 23.5t43.5 60.5t18.5 80t4 82q0 37 -3 80t-17.5 80.5t-44 62.5t-81.5 25q-53 0 -83.5 -23.5t-46 -60.5t-18.5 -81t-3 -83z" />
<glyph unicode="h" horiz-adv-x="1128" d="M123 0v1487h293v-545l8 -2q20 18 49 33.5t60.5 27t64.5 17.5t61 6q72 0 134.5 -23.5t109.5 -69.5t74 -114.5t27 -157.5v-659h-291v598q0 78 -41 117t-103 39q-66 0 -109.5 -39t-43.5 -117v-598h-293z" />
<glyph unicode="i" horiz-adv-x="550" d="M129 0v1014h293v-1014h-293zM129 1169v256h293v-256h-293z" />
<glyph unicode="j" horiz-adv-x="585" d="M-18 -156h53q37 0 59.5 9.5t34.5 25t15 33.5t3 39v1065h293v-1122q0 -137 -83 -220.5t-253 -83.5h-122v254zM147 1169v256h293v-256h-293z" />
<glyph unicode="k" horiz-adv-x="1091" d="M123 0v1487h293v-819l4 -2l133 159l176 189h365l-387 -410l415 -604h-334l-272 401l-100 -108v-293h-293z" />
<glyph unicode="l" horiz-adv-x="585" d="M123 301v1186h293v-1131q0 -68 25.5 -85t66.5 -17h33v-254h-105q-61 0 -118.5 13.5t-100.5 47t-68.5 92t-25.5 148.5z" />
<glyph unicode="m" horiz-adv-x="1716" d="M123 0v1014h293v-94l8 -2q39 47 112.5 76.5t143.5 29.5q90 0 155.5 -34t104.5 -111q57 59 138 102t171 43q160 0 252 -92t92 -273v-659h-290v602q0 78 -43 117t-105 39q-66 0 -107.5 -39t-41.5 -117v-602h-293v602q0 78 -43 117t-105 39q-66 0 -107.5 -39t-41.5 -117 v-602h-293z" />
<glyph unicode="n" horiz-adv-x="1128" d="M123 0v1014h293v-84h4q47 43 117.5 68.5t128.5 25.5q166 0 252 -92t86 -273v-659h-291v598q0 78 -41 117t-103 39q-66 0 -109.5 -39t-43.5 -117v-598h-293z" />
<glyph unicode="o" horiz-adv-x="1056" d="M68 508q2 78 14 153.5t39 131.5q53 115 166 174t256 59q117 0 213 -43t153 -127q43 -64 63 -154q18 -82 17 -180v-20q0 -100 -20.5 -179t-57.5 -141q-63 -102 -168.5 -149t-226.5 -47q-119 0 -212 38.5t-150 122.5q-48 68 -68 159q-19 83 -18 182v20zM367 504 q0 -53 6 -95t22 -73q18 -39 51 -61.5t78 -22.5q53 0 91 28.5t55 81.5q6 23 12 59t6 87v22q0 44 -6 79q-8 44 -18 67q-18 45 -54.5 66.5t-77.5 21.5q-43 0 -78.5 -23.5t-56.5 -64.5q-16 -33 -22 -76t-8 -96z" />
<glyph unicode="p" horiz-adv-x="1091" d="M129 -414v1428h291v-72l6 -2q43 47 103.5 64.5t115.5 17.5q131 0 206 -52t111.5 -130t45 -171.5t8.5 -174.5q0 -78 -14.5 -167t-55.5 -165t-116.5 -125t-200.5 -49q-51 0 -111.5 22.5t-91.5 69.5l-6 -2v-492h-291zM420 504q0 -39 4 -83t19.5 -81t44 -61.5t79.5 -24.5 t81 23.5t45.5 60.5t19.5 81t4 85q0 39 -3 83t-17.5 82t-45 62.5t-84.5 24.5q-53 0 -81.5 -25.5t-44 -63.5t-18.5 -82t-3 -81z" />
<glyph unicode="q" horiz-adv-x="1091" d="M104 483q0 82 12.5 176.5t52.5 175t118 134t211 53.5q53 0 103 -17.5t95 -64.5l4 2v72h293v-1428h-293v494l-4 2q-18 -20 -42.5 -37.5t-53.5 -30t-58.5 -19.5t-54.5 -7q-127 0 -202.5 45t-115.5 116.5t-52.5 159.5t-12.5 174zM403 504q0 -41 3.5 -85t17.5 -80t44 -59.5 t83 -23.5q51 0 81 24.5t45 61.5t19 80t4 82q0 37 -3 81t-17 80.5t-44 62.5t-81 26q-53 0 -84 -24.5t-46 -61.5t-18.5 -81t-3.5 -83z" />
<glyph unicode="r" horiz-adv-x="841" d="M123 -2v1016h287v-115l6 -2q39 55 98 91t127 36q63 0 112.5 -13.5t102.5 -49.5l-102 -256q-53 33 -100.5 43t-88.5 10q-66 0 -107.5 -39t-41.5 -117v-604h-293z" />
<glyph unicode="s" horiz-adv-x="958" d="M29 145l143 205q76 -72 158 -94.5t166 -22.5q55 0 92 23t37 53q0 29 -22.5 53.5t-104.5 34.5q-76 8 -150 22.5t-131 46.5t-92 86t-35 144q0 82 31 144.5t83 102.5t122.5 60.5t148.5 20.5q117 0 217.5 -23.5t196.5 -95.5l-131 -217q-82 55 -158 69.5t-119 14.5 q-66 0 -92.5 -21.5t-26.5 -43.5q0 -35 45.5 -53.5t159.5 -32.5q70 -8 132.5 -25.5t109.5 -51.5t74.5 -89.5t27.5 -137.5t-35.5 -143t-96 -103t-137.5 -62.5t-159 -20.5q-57 0 -113.5 5t-112.5 22.5t-113.5 48t-114.5 81.5z" />
<glyph unicode="t" horiz-adv-x="681" d="M66 786v230h114v278h285v-278h153v-230h-149v-428q0 -66 21.5 -85t66.5 -19h64v-254h-158q-123 0 -205 71.5t-82 200.5v514h-110z" />
<glyph unicode="u" horiz-adv-x="1128" d="M125 352v662h293v-600q0 -78 40 -117t101 -39q66 0 111 39t45 117v600h293v-1014h-293v86h-4q-20 -25 -50 -43t-63 -30.5t-65.5 -18.5t-61.5 -6q-160 0 -253 92t-93 272z" />
<glyph unicode="v" horiz-adv-x="1040" d="M8 1014h314l90 -273l106 -340h4l107 340l92 273h311l-397 -1014h-227z" />
<glyph unicode="w" horiz-adv-x="1542" d="M10 1014h312l71 -252l80 -316h10l92 316l82 252h234l80 -252l90 -316h12l80 316l72 252h311l-346 -1014h-246l-78 250l-90 309h-6l-88 -307l-82 -252h-244z" />
<glyph unicode="x" horiz-adv-x="1101" d="M14 0l387 516l-372 498h350l170 -279l170 279h352l-375 -498l391 -516h-354l-184 291l-182 -291h-353z" />
<glyph unicode="y" horiz-adv-x="1028" d="M0 1014h313l99 -289l98 -319h8l96 315l103 293h311l-459 -1211q-47 -123 -133 -168t-188 -45h-117v240h76q47 0 74.5 29.5t42.5 70.5l49 152z" />
<glyph unicode="z" horiz-adv-x="948" d="M57 0v244l469 520h-440v250h803v-234l-467 -518h467v-262h-832z" />
<glyph unicode="{" horiz-adv-x="643" d="M25 510v213q156 6 155 184v264q0 117 71 185.5t173 68.5h201v-206h-84q-23 0 -39.5 -11.5t-25.5 -29t-13 -39t-4 -39.5v-240q0 -94 -48.5 -154.5t-107.5 -89.5q72 -27 114 -87t42 -152v-242q0 -18 1 -39.5t8 -40t24.5 -30t48.5 -11.5h84v-204h-201q-102 0 -173 68.5 t-71 184.5v269q0 178 -155 178z" />
<glyph unicode="|" horiz-adv-x="530" d="M137 -467v1962h254v-1962h-254z" />
<glyph unicode="}" horiz-adv-x="643" d="M23 14h83q31 0 48.5 11.5t24.5 30t8 40t1 39.5v242q0 92 42 152.5t114 86.5q-59 29 -107.5 89.5t-48.5 154.5v240q0 39 -18 79t-64 40h-83v206h200q102 0 172 -68.5t70 -185.5v-264q0 -178 158 -184v-213q-158 0 -158 -178v-269q0 -117 -69.5 -185t-172.5 -68h-200v204z " />
<glyph unicode="~" d="M88 463q61 121 133.5 187.5t181.5 66.5q47 0 92.5 -18.5t86.5 -39t76.5 -38t64.5 -17.5q41 0 80 27.5t86 87.5l158 -96q-63 -133 -134 -191.5t-157 -58.5q-49 0 -95.5 17.5t-88.5 36.5t-80.5 36.5t-71.5 17.5q-41 0 -83 -23.5t-95 -90.5z" />
<glyph unicode="&#xa2;" d="M139 506q0 123 33 214t89 153.5t130 98.5t158 46v285h119v-281q90 -6 167.5 -41t147.5 -104l-188 -199q-47 45 -89 64.5t-81 19.5q-88 0 -134.5 -59.5t-46.5 -196.5q0 -135 41 -193.5t133 -58.5q41 0 86.5 19.5t94.5 66.5l192 -197q-72 -66 -153.5 -103.5t-169.5 -47.5 v-268h-119v268q-86 8 -161 42t-130 97.5t-87 156.5t-32 218z" />
<glyph unicode="&#xa3;" d="M61 547v213h134q-23 76 -51.5 140.5t-28.5 123.5q0 76 25.5 149.5t82 131t144.5 93.5t215 36q70 0 132 -7.5t119.5 -32t114 -73.5t115.5 -133l-244 -166q-31 43 -58.5 70.5t-54 43t-52 21.5t-56.5 6q-27 0 -52.5 -10t-47 -29.5t-34.5 -47t-13 -62.5q0 -27 9 -53.5 t23.5 -56.5t27.5 -65.5t24 -78.5h288v-213h-286q-8 -78 -28 -154t-52 -137h581v-256h-966v221q61 80 95 154t44 172h-150z" />
<glyph unicode="&#xa5;" d="M-27 1425h351l151 -338l96 -253h9l94 258l153 333h326l-350 -677h207v-168h-297v-86h297v-168h-297v-326h-301v326h-291v168h291v86h-291v168h201z" />
<glyph unicode="&#xa8;" horiz-adv-x="1056" d="M156 1165v267h303v-267h-303zM602 1165v267h305v-267h-305z" />
<glyph unicode="&#xa9;" horiz-adv-x="1679" d="M115 700q0 160 55 295t153.5 233.5t231.5 154t287 55.5t287 -54.5t231 -152.5t153.5 -233.5t55.5 -297.5q0 -160 -55.5 -294t-153.5 -232t-231 -152.5t-287 -54.5t-287 53.5t-231.5 149.5t-153.5 231.5t-55 298.5zM295 700q0 -123 42 -227t114.5 -181t173 -121t217.5 -44 t217 44t173 121t115 181.5t42 226.5q0 127 -42 233.5t-115 182.5t-173 118t-217 42t-217.5 -44t-173 -122t-114.5 -182.5t-42 -227.5zM496 578v210q0 70 21.5 133.5t64.5 112.5t108.5 78t153.5 29q129 0 216 -62.5t120 -167.5l-189 -67q-10 47 -48 78.5t-101 31.5 q-76 0 -111 -45t-35 -102v-244q0 -59 35 -105t111 -46q59 0 99 31.5t50 82.5l189 -73q-33 -109 -120 -168.5t-216 -59.5q-88 0 -153.5 27t-108.5 73t-64.5 110.5t-21.5 142.5z" />
<glyph unicode="&#xab;" horiz-adv-x="1210" d="M94 459l299 438h287l-293 -438l293 -439h-287zM561 459l299 438h287l-291 -438l291 -439h-287z" />
<glyph unicode="&#xad;" horiz-adv-x="901" d="M96 393v269h709v-269h-709z" />
<glyph unicode="&#xae;" horiz-adv-x="1077" d="M92 991q0 94 37 176t98.5 141.5t143.5 93.5t172 34q96 0 179 -34t143.5 -93.5t95 -141.5t34.5 -176t-36.5 -175t-99 -139.5t-144.5 -92t-172 -33.5q-96 0 -178 33.5t-142.5 92t-95.5 139.5t-35 175zM205 991q0 -72 25.5 -133t71.5 -107t107.5 -73t133.5 -27t133 27 t106 73t71 107.5t26 132.5q0 72 -26 134.5t-71 108.5t-106 71.5t-133 25.5t-133.5 -25.5t-107.5 -71.5t-71.5 -108.5t-25.5 -134.5zM373 745v500h198q66 0 113 -40t47 -111q0 -41 -19.5 -77t-62.5 -63l96 -209h-120l-86 191h-60v-191h-106zM479 1036h88q29 0 45.5 15.5 t16.5 42.5q0 49 -58 49h-92v-107z" />
<glyph unicode="&#xb4;" horiz-adv-x="1056" d="M375 1161l174 416l272 -88l-276 -389z" />
<glyph unicode="&#xb8;" horiz-adv-x="948" d="M240 -391l51 127q51 -25 84 -31t67 -6q33 0 57.5 15.5t24.5 45.5q0 20 -11 32.5t-26.5 16t-32 1t-28.5 -8.5l-80 41l82 258l147 2l-57 -176q106 -12 151.5 -67.5t45.5 -116.5q0 -37 -16.5 -70.5t-48.5 -61.5t-78 -44.5t-103 -16.5q-66 0 -125 15.5t-104 44.5z" />
<glyph unicode="&#xbb;" horiz-adv-x="1210" d="M94 20l291 439l-291 438h287l299 -438l-299 -439h-287zM561 20l293 439l-293 438h287l299 -438l-299 -439h-287z" />
<glyph unicode="&#xc2;" horiz-adv-x="1351" d="M-4 0l553 1425h248l553 -1425h-332l-107 291h-477l-106 -291h-332zM264 1608l305 245h201l309 -245l-104 -121l-305 162l-308 -160zM532 557h281l-53 164l-84 283h-8l-82 -279z" />
<glyph unicode="&#xc7;" horiz-adv-x="1228" d="M92 545v336q0 111 34 211t102.5 177t172 122t242.5 45q205 0 341 -99.5t190 -263.5l-300 -106q-16 74 -75.5 124t-157.5 50q-59 0 -102 -19.5t-72 -52.5t-43 -75t-14 -85v-387q0 -47 14 -90t43 -75.5t72 -53t102 -20.5q96 0 156.5 50t76.5 128l300 -115 q-49 -160 -175.5 -253t-308.5 -103l-20 -64q106 -12 151 -67.5t45 -116.5q0 -37 -16 -70.5t-48 -61.5t-78 -44.5t-103 -16.5q-66 0 -125.5 15.5t-104.5 44.5l51 127q51 -25 84 -31t68 -6q33 0 57.5 15.5t24.5 45.5q0 20 -11.5 32.5t-26.5 16t-31.5 1t-28.5 -8.5l-80 41 l47 152q-115 14 -200 60t-141.5 118t-84 167t-27.5 206z" />
<glyph unicode="&#xce;" horiz-adv-x="602" d="M-96 1608l305 245h201l309 -245l-105 -121l-305 162l-307 -160zM150 0v1425h315v-1425h-315z" />
<glyph unicode="&#xd6;" horiz-adv-x="1277" d="M84 545v336q0 111 34 211t102.5 177t172 122t242.5 45q129 0 232.5 -42t176 -116t111.5 -176.5t39 -220.5v-336q0 -127 -40 -230.5t-112.5 -176t-176 -111.5t-230.5 -39q-139 0 -242.5 45t-172 121.5t-102.5 178t-34 212.5zM268 1524v272h314v-272h-314zM401 522 q0 -47 14.5 -90t43 -75.5t71.5 -53t103 -20.5q115 0 177 68.5t62 170.5v387q0 94 -62 163t-177 69q-59 0 -102.5 -19.5t-72 -52.5t-43 -75t-14.5 -85v-387zM709 1524v272h311v-272h-311z" />
<glyph unicode="&#xdb;" horiz-adv-x="1345" d="M119 516v909h313v-886q0 -123 70.5 -189.5t171.5 -66.5q104 0 171.5 59t67.5 178v905h316v-927q0 -115 -44 -208t-119 -160t-176.5 -103.5t-215.5 -36.5q-115 0 -216.5 38t-177 106.5t-118.5 165.5t-43 216zM268 1608l305 245h201l309 -245l-104 -121l-305 162l-307 -160 z" />
<glyph unicode="&#xdc;" horiz-adv-x="1345" d="M119 516v909h313v-886q0 -123 70.5 -189.5t171.5 -66.5q104 0 171.5 59t67.5 178v905h316v-927q0 -115 -44 -208t-119 -160t-176.5 -103.5t-215.5 -36.5q-115 0 -216.5 38t-177 106.5t-118.5 165.5t-43 216zM305 1524v272h313v-272h-313zM745 1524v272h312v-272h-312z " />
<glyph unicode="&#xe2;" horiz-adv-x="1056" d="M72 301q0 63 24.5 120.5t70.5 100.5t114.5 67.5t156.5 24.5h230v33q0 16 -5.5 38t-22.5 40t-51 31.5t-91 13.5q-70 0 -129.5 -17.5t-110.5 -62.5l-141 199q92 84 197.5 109.5t213.5 25.5q88 0 167 -16.5t137.5 -56.5t92 -106.5t33.5 -166.5v-678h-290v94l-6 2 q-27 -31 -60 -51t-66.5 -32.5t-66.5 -17.5t-57 -5q-74 0 -136.5 18.5t-107.5 56t-70.5 96t-25.5 140.5zM115 1167l301 318h211l303 -318l-115 -100l-295 213q-74 -53 -148.5 -106.5t-148.5 -104.5zM352 326q0 -10 5 -25.5t19.5 -31t42 -27t73.5 -11.5q68 0 122 33t54 105v32 h-193q-39 0 -63.5 -7t-38 -18t-17.5 -24.5t-4 -25.5z" />
<glyph unicode="&#xe7;" horiz-adv-x="948" d="M57 506q0 137 40 234.5t107.5 161t156 93t182.5 29.5q104 0 192 -35t166 -112l-188 -199q-47 45 -89 64.5t-81 19.5q-88 0 -134.5 -59.5t-46.5 -196.5q0 -135 41 -193.5t134 -58.5q41 0 86 19.5t94 66.5l192 -197q-162 -145 -362 -155l-21 -62q106 -12 151.5 -67.5 t45.5 -116.5q0 -37 -16.5 -70.5t-48 -61.5t-77.5 -44.5t-104 -16.5q-66 0 -125 15.5t-104 44.5l51 127q51 -25 84 -31t68 -6q33 0 57 15.5t24 45.5q0 20 -11 32.5t-26.5 16t-32 1t-28.5 -8.5l-80 41l49 158q-74 16 -137 55t-109 101.5t-73 148.5t-27 201z" />
<glyph unicode="&#xee;" horiz-adv-x="731" d="M-43 1167l301 318h211l303 -318l-115 -100l-295 213q-74 -53 -148.5 -106.5t-147.5 -104.5zM213 0v1014h293v-1014h-293z" />
<glyph unicode="&#xf6;" horiz-adv-x="1056" d="M68 508q2 78 14 153.5t39 131.5q53 115 166 174t256 59q117 0 213 -43t153 -127q43 -63 62.5 -153.5t17.5 -200.5q0 -100 -20.5 -179t-57.5 -141q-63 -102 -168.5 -149t-226.5 -47q-119 0 -212 38.5t-150 122.5q-47 68 -67.5 159t-18.5 202zM156 1165v267h303v-267h-303z M367 504q0 -53 6 -95t22 -73q18 -39 51 -61.5t78 -22.5q53 0 91 28.5t55 81.5q6 23 12 59t6 87q2 57 -6 101t-18 67q-18 45 -54.5 66.5t-77.5 21.5q-43 0 -78.5 -23.5t-56.5 -64.5q-16 -33 -22 -76t-8 -96zM602 1165v267h305v-267h-305z" />
<glyph unicode="&#xfb;" horiz-adv-x="1128" d="M125 352v662h293v-600q0 -78 40 -117t101 -39q66 0 111 39t45 117v600h293v-1014h-293v86h-4q-20 -25 -50 -43t-63 -30.5t-65.5 -18.5t-61.5 -6q-160 0 -253 92t-93 272zM156 1167l301 318h211l303 -318l-115 -100l-295 213q-74 -53 -148.5 -106.5t-148.5 -104.5z" />
<glyph unicode="&#xfc;" horiz-adv-x="1128" d="M125 352v662h293v-600q0 -78 40 -117t101 -39q66 0 111 39t45 117v600h293v-1014h-293v86h-4q-20 -25 -50 -43t-63 -30.5t-65.5 -18.5t-61.5 -6q-160 0 -253 92t-93 272zM180 1165v267h303v-267h-303zM627 1165v267h305v-267h-305z" />
<glyph unicode="&#x11e;" horiz-adv-x="1304" d="M100 545v336q0 111 34 211t102.5 177t172 122t242.5 45q205 0 341 -99.5t190 -263.5l-299 -106q-16 74 -75.5 124t-158.5 50q-59 0 -102 -19.5t-72 -52.5t-43 -75t-14 -85v-387q0 -47 14 -90t43 -76.5t73 -54t103 -20.5q51 0 95.5 19t78 52t53 76t19.5 92v10h-291v263 h602v-285q0 -113 -44 -208t-119.5 -164.5t-177 -108.5t-216.5 -39q-139 0 -242.5 41t-172 114.5t-102.5 176t-34 225.5zM328 1827h204q0 -20 7.5 -44t21.5 -45.5t35.5 -35.5t50.5 -14t50.5 14t36 35.5t21.5 45t7 44.5h205q-6 -47 -23.5 -104.5t-53.5 -107.5t-95.5 -84 t-147.5 -34t-147.5 34t-95 84t-53 107.5t-23.5 104.5z" />
<glyph unicode="&#x11f;" horiz-adv-x="1091" d="M82 483q0 82 11 176.5t51 175t115 134t204 53.5q57 0 110.5 -16.5t100.5 -65.5l4 2v72h293v-987q0 -121 -40 -207t-105.5 -140.5t-151.5 -79t-178 -24.5t-188.5 26.5t-188.5 104.5l143 203q61 -41 126 -56.5t106 -15.5q76 0 131 42t55 122v80l-4 2q-18 -23 -44 -40 t-54.5 -29.5t-58.5 -19.5t-54 -7q-127 0 -203 48t-116 121.5t-52 161t-12 164.5zM225 1479h205q0 -20 7 -44t21.5 -45.5t36 -36t50.5 -14.5t50 14.5t35.5 36t21.5 45t7 44.5h205q-6 -47 -23.5 -104.5t-53 -107.5t-95 -84t-147.5 -34t-147.5 34t-95.5 84t-53.5 107.5 t-23.5 104.5zM381 504q0 -41 4 -84t19.5 -79t45 -59.5t82.5 -23.5q51 0 80 23.5t43.5 60.5t18.5 80t4 82q0 37 -3 80t-17.5 80.5t-44 62.5t-81.5 25q-53 0 -83.5 -23.5t-46 -60.5t-18.5 -81t-3 -83z" />
<glyph unicode="&#x130;" horiz-adv-x="602" d="M150 0v1425h315v-1425h-315zM152 1534v266h303v-266h-303z" />
<glyph unicode="&#x131;" horiz-adv-x="550" d="M129 0v1014h293v-1014h-293z" />
<glyph unicode="&#x15e;" horiz-adv-x="1216" d="M16 184l183 242q100 -90 202.5 -120t212.5 -30q104 0 159.5 42t55.5 100q0 27 -6 51.5t-26.5 46t-59.5 36.5t-102 21q-102 10 -196.5 33t-168 71t-117.5 125t-44 197q0 113 44 196t114.5 137t158.5 80t176 26q131 0 260 -29t244 -104l-145 -252q-51 33 -101.5 51 t-96.5 28.5t-85 13.5t-68 3q-59 0 -95 -12.5t-57.5 -33t-28.5 -44t-7 -43.5q0 -35 13.5 -57.5t47 -39t92 -28.5t146.5 -27q88 -14 168 -41.5t140.5 -77t96 -124t35.5 -183.5q0 -98 -39 -176t-105.5 -134t-151.5 -90t-177 -44l-20 -68q106 -12 151 -67.5t45 -116.5 q0 -37 -16.5 -70.5t-48 -61.5t-77.5 -44.5t-104 -16.5q-66 0 -125 15.5t-104 44.5l51 127q51 -25 84 -31t68 -6q33 0 57.5 15.5t24.5 45.5q0 20 -11.5 32.5t-26.5 16t-31.5 1t-29.5 -8.5l-79 41l45 148q-66 2 -132.5 12t-132 31.5t-131 58.5t-129.5 92z" />
<glyph unicode="&#x15f;" horiz-adv-x="958" d="M29 145l143 205q76 -72 158 -94.5t166 -22.5q55 0 92 23t37 53q0 29 -22.5 53.5t-104.5 34.5q-76 8 -150 22.5t-131 46.5t-92 86t-35 144q0 82 31 144.5t83 102.5t122.5 60.5t148.5 20.5q117 0 217.5 -23.5t196.5 -95.5l-131 -217q-82 55 -158 69.5t-119 14.5 q-66 0 -92.5 -21.5t-26.5 -43.5q0 -35 45.5 -53.5t159.5 -32.5q70 -8 132.5 -25.5t109.5 -51.5t74.5 -89.5t27.5 -137.5q0 -68 -24.5 -121t-66.5 -93t-98 -65.5t-120 -37.5l-22 -74q106 -12 151 -67.5t45 -116.5q0 -37 -16.5 -70.5t-48 -61.5t-77.5 -44.5t-104 -16.5 q-66 0 -125 15.5t-104 44.5l51 127q51 -25 84 -31t68 -6q33 0 57.5 15.5t24.5 45.5q0 20 -11.5 32.5t-27 16t-31.5 1t-29 -8.5l-79 41l45 146q-106 2 -211 31.5t-213 125.5z" />
<glyph unicode="&#x2c6;" horiz-adv-x="1056" d="M115 1167l301 318h211l303 -318l-115 -100l-295 213q-74 -53 -148.5 -106.5t-148.5 -104.5z" />
<glyph unicode="&#x2da;" horiz-adv-x="1056" d="M313 1317q0 49 20.5 92t55.5 76t81 51t99 18q51 0 98.5 -18t81 -51t54 -76t20.5 -92t-20.5 -92t-55 -76t-80.5 -51.5t-100 -18.5q-53 0 -99 18.5t-80 51.5t-54.5 76t-20.5 92zM485 1317q0 -33 25 -55.5t59 -22.5q35 0 58.5 22.5t23.5 55.5t-23.5 54.5t-58.5 21.5 t-59.5 -21.5t-24.5 -54.5z" />
<glyph unicode="&#x2dc;" horiz-adv-x="1056" d="M137 1227q53 111 116 170t155 59q39 0 77.5 -16.5t73.5 -35t65.5 -33.5t55.5 -15q35 0 65.5 22.5t71.5 75.5l139 -82q-53 -119 -114.5 -171t-132.5 -52q-41 0 -81 15.5t-76 32.5t-68.5 32.5t-61.5 15.5q-35 0 -71 -21.5t-81 -80.5z" />
<glyph unicode="&#x2000;" horiz-adv-x="926" />
<glyph unicode="&#x2001;" horiz-adv-x="1853" />
<glyph unicode="&#x2002;" horiz-adv-x="926" />
<glyph unicode="&#x2003;" horiz-adv-x="1853" />
<glyph unicode="&#x2004;" horiz-adv-x="617" />
<glyph unicode="&#x2005;" horiz-adv-x="463" />
<glyph unicode="&#x2006;" horiz-adv-x="308" />
<glyph unicode="&#x2007;" horiz-adv-x="308" />
<glyph unicode="&#x2008;" horiz-adv-x="231" />
<glyph unicode="&#x2009;" horiz-adv-x="370" />
<glyph unicode="&#x200a;" horiz-adv-x="102" />
<glyph unicode="&#x2010;" horiz-adv-x="901" d="M96 393v269h709v-269h-709z" />
<glyph unicode="&#x2011;" horiz-adv-x="901" d="M96 393v269h709v-269h-709z" />
<glyph unicode="&#x2012;" horiz-adv-x="901" d="M96 393v269h709v-269h-709z" />
<glyph unicode="&#x2013;" horiz-adv-x="1075" d="M41 449v253h993v-253h-993z" />
<glyph unicode="&#x2014;" horiz-adv-x="2150" d="M41 449v253h2068v-253h-2068z" />
<glyph unicode="&#x2018;" horiz-adv-x="581" d="M102 838v323l201 324h150l-78 -307h74v-340h-347z" />
<glyph unicode="&#x2019;" horiz-adv-x="581" d="M102 838l78 307h-74v340h347v-324l-201 -323h-150z" />
<glyph unicode="&#x201a;" horiz-adv-x="612" d="M129 -307l78 307h-74v340h346v-324l-200 -323h-150z" />
<glyph unicode="&#x201c;" horiz-adv-x="905" d="M61 838v323l201 324h150l-78 -307h74v-340h-347zM485 838v323l201 324h150l-78 -307h73v-340h-346z" />
<glyph unicode="&#x201d;" horiz-adv-x="905" d="M61 838l78 307h-73v340h346v-324l-201 -323h-150zM485 838l78 307h-74v340h347v-324l-201 -323h-150z" />
<glyph unicode="&#x201e;" horiz-adv-x="1036" d="M129 -307l78 307h-74v340h346v-324l-200 -323h-150zM553 -307l78 307h-74v340h346v-324l-201 -323h-149z" />
<glyph unicode="&#x2026;" horiz-adv-x="2105" d="M174 0v338h346v-338h-346zM895 0v338h346v-338h-346zM1575 0v338h346v-338h-346z" />
<glyph unicode="&#x202f;" horiz-adv-x="370" />
<glyph unicode="&#x2039;" horiz-adv-x="827" d="M94 459l299 438h287l-293 -438l293 -439h-287z" />
<glyph unicode="&#x203a;" horiz-adv-x="827" d="M94 20l293 439l-293 438h287l299 -438l-299 -439h-287z" />
<glyph unicode="&#x205f;" horiz-adv-x="463" />
<glyph unicode="&#x20ac;" d="M35 504v176h76v49h-76v174h76q6 123 47 220.5t108.5 164t158.5 101t200 34.5q176 0 294.5 -92t178.5 -252l-281 -112q-25 72 -78 111.5t-114 39.5q-92 0 -140.5 -46t-64.5 -169h342v-174h-346v-49h346v-176h-342q12 -121 67.5 -167t137.5 -46q61 0 113.5 40t76.5 115 l295 -84q-59 -172 -179 -273t-306 -101q-109 0 -200 30.5t-158.5 93t-108.5 160t-47 232.5h-76z" />
<glyph unicode="&#x2122;" horiz-adv-x="1875" d="M76 1229v196h723v-196h-254v-668h-215v668h-254zM893 561v862h188l222 -477l208 477h197v-862h-207l-4 365l-117 -252h-161l-119 254v-367h-207z" />
<glyph unicode="&#x25fc;" horiz-adv-x="1013" d="M0 0v1014h1014v-1014h-1014z" />
</font>
</defs>
</svg>
